Регистрация ·  Логин: Пароль: Запомнить   · Забыли пароль?



Торрент трекер atorrent.space.
Скачать торрент Выживший / The Revenant (2015) BDRip-AVC от HQCLUB | D | Лицензия, размером 4.76 ГБ



Ответить на тему
Статистика раздачи
Размер: 4.76 ГБ | Зарегистрирован: 07 фев 2018, 03:27 | .torrent скачан: 0 раз(а)
Сидеров: [ 0  | 0 байт/сек ]   Личеров: [ 0  | 0 байт/сек ]   DHT: [ 0 / 0 ]
Автор Сообщение

Модератор
Аватара пользователя

Стаж: 5 лет 6 месяцев
Сообщения: 4721
Россия

Сообщение 07 фев 2018, 03:27 

[Цитировать]

Выживший / The Revenant (2015) BDRip-AVC
от HQCLUB



Информация о фильме:
Название: Выживший
Оригинальное название: The Revenant
Год выхода: 2015
Жанр: триллер, драма, приключения, вестерн
Режиссер: Алехандро Гонсалес Иньярриту / Alejandro G. Iñárritu
В ролях: Леонардо ДиКаприо, Том Харди, Донал Глисон, Уилл Поултер, Форрест Гудлак, Пол Андерсон, Кристоффер Йонер, Джошуа Бёрдж, Дуан Ховард, Мила Нахеко

О фильме: Охотник Хью Гласс серьезно ранен на неизведанных просторах американского Дикого Запада. Товарищ Хью по отряду покорителей новых земель Джон Фицжеральд предательски оставляет его умирать в одиночестве. Теперь у Гласса осталось только одно оружие — его сила воли. Он готов бросить вызов первобытной природе, суровой зиме и враждебным племенам индейцев, только чтобы выжить и отомстить Фицжеральду.

«До последней капли крови»

Обладатель 3 премий «ОСКАР» за Лучшую мужская роль (Леонардо ДиКаприо),
Лучшего режиссера (Алехандро Гонсалес Иньярриту) и Лучшую работу оператора, 2016 г.




Релиз от -
Автор рипа: Elheym

Выпущено: США, Гонконг, Тайвань, Канада ‖ Anonymous Content, Appian Way, New Regency Pictures, RatPac Entertainment, Soho VFX
Продолжительность: 02:36:21
Перевод: Профессиональный (полное дублирование) BD EUR
Оригинальная аудиодорожка: английская
Субтитры: русские (полные х4: [EgZvor, Polaris198], BD, iTunes, автор неизвестен**; форсированные), украинские (полные х3: BD, Notabenoid, iTunes; форсированные), английские (полные х2, SDH, SDH цветные, форсированные)
Главы: присутствуют, сохранены оригинальные

Дополнительные аудиодорожки:
+ Авторский (одноголосый, закадровый) Д. Есарев
+ Профессиональный (полное дублирование) украинский

Файл:
Формат: MKV
Качество: BDRip-AVC (источник: / Blu-ray Remux [THE_REVENANT_REMUX_HDCLUB] / 1080p)
Видео: 1132x474 (2.40:1), 23.976 fps, MPEG-4 AVC, ~3380 kbps avg, 0.263 bit/pixel
Аудио #1: 48 kHz, AC3 Dolby Digital, 3/2 (L,C,R,l,r) + LFE ch, ~448 kbps avg (DUB)
Аудио #2: 48 kHz, AC3 Dolby Digital, 3/2 (L,C,R,l,r) + LFE ch, ~448 kbps avg (ENG)
Аудио #3: 48 kHz, AC3 Dolby Digital, 3/2 (L,C,R,l,r) + LFE ch, ~448 kbps avg (VO.ESAREV) (отдельно)
Аудио #4: 48 kHz, AC3 Dolby Digital, 3/2 (L,C,R,l,r) + LFE ch, ~448 kbps avg (UKR) (отдельно)
Размер: 4.76 GB
Сэмпл: скачать

Уникальный идентификатор : 240446976339023607561395392884815334383 (0xB4E46736996CE641AE5B21193CA68BEF)
Полное имя : The.Revenant.2015.BDRip-AVC.Rus.Eng.-HQCLUB.mkv
Формат : Matroska
Версия формата : Version 2
Размер файла : 4,76 Гбайт
Продолжительность : 2 ч. 36 м.
Общий поток : 4362 Кбит/сек
Название фильма : Выживший / The Revenant (2015) BDRip-AVC by Elheym [HQCLUB]
Дата кодирования : UTC 2016-04-19 13:59:57
Программа кодирования : mkvmerge v5.2.0 ('I can't explain') built on Dec 18 2011 18:12:03
Библиотека кодирования : libebml v1.2.3 + libmatroska v1.3.0
Обложка : Yes
Attachments : cover.jpg

Видео
Идентификатор : 1
Формат : AVC
Формат/Информация : Advanced Video Codec
Профиль формата : [email protected]
Параметр CABAC формата : Да
Параметр ReFrames формата : 14 кадров
Идентификатор кодека : V_MPEG4/ISO/AVC
Продолжительность : 2 ч. 36 м.
Битрейт : 3380 Кбит/сек
Ширина : 1132 пикселя
Высота : 474 пикселя
Соотношение сторон : 2,40:1
Режим частоты кадров : Постоянный
Частота кадров : 23,976 (24000/1001) кадра/сек
Цветовое пространство : YUV
Субдискретизация насыщенности : 4:2:0
Битовая глубина : 8 бит
Тип развёртки : Прогрессивная
Бит/(Пиксели*Кадры) : 0.263
Размер потока : 3,69 Гбайт (77%)
Заголовок : Выживший / The Revenant (2015) BDRip-AVC by Elheym [HQCLUB]
Библиотека кодирования : x264 core 148 r2692+54 69a6f49 t_mod_Custom [[email protected] X86_64]
Настройки программы : cabac=1 / ref=14 / deblock=1:-2:-1 / analyse=0x3:0x113 / me=umh / subme=11 / psy=1 / fade_compensate=0.00 / psy_rd=1.15:0.05 / mixed_ref=1 / me_range=32 / chroma_me=1 / trellis=2 / 8x8dct=1 / cqm=0 / deadzone=21,11 / fast_pskip=0 / chroma_qp_offset=-3 / threads=6 / lookahead_threads=2 / sliced_threads=0 / nr=0 / decimate=0 / interlaced=0 / bluray_compat=0 / constrained_intra=0 / fgo=0 / bframes=13 / b_pyramid=2 / b_adapt=2 / b_bias=0 / direct=3 / weightb=1 / open_gop=0 / weightp=2 / keyint=230 / keyint_min=23 / scenecut=40 / intra_refresh=0 / rc_lookahead=80 / rc=crf / mbtree=0 / crf=17.6000 / qcomp=0.70 / qpmin=0:0:0 / qpmax=69:69:69 / qpstep=4 / vbv_maxrate=20000 / vbv_bufsize=25000 / crf_max=0.0 / nal_hrd=none / filler=0 / ip_ratio=1.40 / pb_ratio=1.30 / aq=2:1.20 / aq-sensitivity=10.00 / aq-factor=1.00:1.00:1.00 / aq2=0 / aq3=3:[0.50:0.50]:[0.50:0.50]:[0.50:0.50]:[0.50:0.50] / aq3-sensitivity=10.00 / aq3-factor=[1.00:1.00]:[1.00:1.00]:[1.00:1.00] / aq3-boundary=192:64:24
Язык : English
Default : Да
Forced : Нет

Аудио #1
Идентификатор : 2
Формат : AC-3
Формат/Информация : Audio Coding 3
Расширение режима : CM (complete main)
Параметр Endianness формата : Big
Идентификатор кодека : A_AC3
Продолжительность : 2 ч. 36 м.
Вид битрейта : Постоянный
Битрейт : 448 Кбит/сек
Каналы : 6 каналов
Расположение каналов : Front: L C R, Side: L R, LFE
Частота : 48,0 КГц
Частота кадров : 31,250 кадров/сек (1536 spf)
Метод сжатия : С потерями
Размер потока : 501 Мбайт (10%)
Заголовок : АС3 5.1 @ 448 kbps - Dub, BD EUR
Язык : Russian
Default : Нет
Forced : Нет

Аудио #2
Идентификатор : 3
Формат : AC-3
Формат/Информация : Audio Coding 3
Расширение режима : CM (complete main)
Параметр Endianness формата : Big
Идентификатор кодека : A_AC3
Продолжительность : 2 ч. 36 м.
Вид битрейта : Постоянный
Битрейт : 448 Кбит/сек
Каналы : 6 каналов
Расположение каналов : Front: L C R, Side: L R, LFE
Частота : 48,0 КГц
Частота кадров : 31,250 кадров/сек (1536 spf)
Метод сжатия : С потерями
Размер потока : 501 Мбайт (10%)
Заголовок : АС3 5.1 @ 448 kbps - Original
Язык : English
Default : Нет
Forced : Нет

Текст #1
Идентификатор : 4
Формат : UTF-8
Идентификатор кодека : S_TEXT/UTF8
Идентификатор кодека/Информация : UTF-8 Plain Text
Заголовок : Full (EgZvor, Polaris198)
Язык : Russian
Default : Нет
Forced : Нет

Текст #2
Идентификатор : 5
Формат : UTF-8
Идентификатор кодека : S_TEXT/UTF8
Идентификатор кодека/Информация : UTF-8 Plain Text
Заголовок : Full, BD
Язык : Russian
Default : Нет
Forced : Нет

Текст #3
Идентификатор : 6
Формат : UTF-8
Идентификатор кодека : S_TEXT/UTF8
Идентификатор кодека/Информация : UTF-8 Plain Text
Заголовок : Full, iTunes
Язык : Russian
Default : Нет
Forced : Нет

Текст #4
Идентификатор : 7
Формат : UTF-8
Идентификатор кодека : S_TEXT/UTF8
Идентификатор кодека/Информация : UTF-8 Plain Text
Заголовок : Full [Uncensored]
Язык : Russian
Default : Нет
Forced : Нет

Текст #5
Идентификатор : 8
Формат : UTF-8
Идентификатор кодека : S_TEXT/UTF8
Идентификатор кодека/Информация : UTF-8 Plain Text
Заголовок : Forced
Язык : Russian
Default : Нет
Forced : Нет

Текст #6
Идентификатор : 9
Формат : UTF-8
Идентификатор кодека : S_TEXT/UTF8
Идентификатор кодека/Информация : UTF-8 Plain Text
Заголовок : Full, BD
Язык : Ukrainian
Default : Нет
Forced : Нет

Текст #7
Идентификатор : 10
Формат : UTF-8
Идентификатор кодека : S_TEXT/UTF8
Идентификатор кодека/Информация : UTF-8 Plain Text
Заголовок : Full, Notabenoid
Язык : Ukrainian
Default : Нет
Forced : Нет

Текст #8
Идентификатор : 11
Формат : UTF-8
Идентификатор кодека : S_TEXT/UTF8
Идентификатор кодека/Информация : UTF-8 Plain Text
Заголовок : Full, iTunes
Язык : Ukrainian
Default : Нет
Forced : Нет

Текст #9
Идентификатор : 12
Формат : UTF-8
Идентификатор кодека : S_TEXT/UTF8
Идентификатор кодека/Информация : UTF-8 Plain Text
Заголовок : Forced
Язык : Ukrainian
Default : Нет
Forced : Нет

Текст #10
Идентификатор : 13
Формат : UTF-8
Идентификатор кодека : S_TEXT/UTF8
Идентификатор кодека/Информация : UTF-8 Plain Text
Заголовок : Full, V1
Язык : English
Default : Нет
Forced : Нет

Текст #11
Идентификатор : 14
Формат : UTF-8
Идентификатор кодека : S_TEXT/UTF8
Идентификатор кодека/Информация : UTF-8 Plain Text
Заголовок : Full, V2
Язык : English
Default : Нет
Forced : Нет

Текст #12
Идентификатор : 15
Формат : UTF-8
Идентификатор кодека : S_TEXT/UTF8
Идентификатор кодека/Информация : UTF-8 Plain Text
Заголовок : SDH
Язык : English
Default : Нет
Forced : Нет

Текст #13
Идентификатор : 16
Формат : UTF-8
Идентификатор кодека : S_TEXT/UTF8
Идентификатор кодека/Информация : UTF-8 Plain Text
Заголовок : SDH Colored
Язык : English
Default : Нет
Forced : Нет

Текст #14
Идентификатор : 17
Формат : UTF-8
Идентификатор кодека : S_TEXT/UTF8
Идентификатор кодека/Информация : UTF-8 Plain Text
Заголовок : Forced
Язык : English
Default : Нет
Forced : Нет

Меню
00:00:00.000 : :Chapter 01
00:05:04.846 : :Chapter 02
00:07:58.310 : :Chapter 03
00:13:18.964 : :Chapter 04
00:21:10.685 : :Chapter 05
00:28:21.657 : :Chapter 06
00:37:07.765 : :Chapter 07
00:44:00.345 : :Chapter 08
00:48:14.974 : :Chapter 09
00:51:42.264 : :Chapter 10
00:56:51.032 : :Chapter 11
00:59:50.753 : :Chapter 12
01:03:31.766 : :Chapter 13
01:11:52.432 : :Chapter 14
01:16:36.131 : :Chapter 15
01:21:22.377 : :Chapter 16
01:28:31.139 : :Chapter 17
01:37:29.969 : :Chapter 18
01:48:44.643 : :Chapter 19
01:53:08.782 : :Chapter 20
01:59:05.930 : :Chapter 21
02:02:56.702 : :Chapter 22
02:15:45.261 : :Chapter 23
02:22:51.020 : :Chapter 24
02:36:21.120 : :Chapter 25

x264 [info]: frame I:1209 Avg QP:15.02 size: 92217
x264 [info]: frame P:51901 Avg QP:17.16 size: 37078
x264 [info]: frame B:171818 Avg QP:18.90 size: 11791

x264 [info]: consecutive B-frames: 2.1% 4.0% 6.9% 32.2% 17.9% 23.6% 5.1% 4.3% 1.1% 0.5% 0.4% 1.0% 0.3% 0.7%

x264 [info]: ref P L0: 52.7% 14.5% 12.5% 5.0% 3.7% 2.7% 2.2% 1.3% 1.2% 1.0% 0.9% 0.8% 0.8% 0.7% 0.1% 0.0%
x264 [info]: ref B L0: 81.2% 7.7% 3.7% 2.1% 1.4% 1.0% 0.8% 0.5% 0.4% 0.4% 0.3% 0.2% 0.1%
x264 [info]: ref B L1: 95.6% 4.4%




ЦитатаКто-то писал:

Перевод Дмитрия Есарева доступен благодаря: mv73, shandorra, Прохожий, napaHouk, fatalflaw, Wa1ker, sa1992, igrok2012, Loki1982, Антиквар, DREADG, kidman644, shagrath88, Shrooms, Start.Point, Mexicana, ZeDOK, Star Dogshurikkein, pustov, ivan_aka_flint, Gambler, J. Green, Artemii, Eko. Работа со звуком Переводман. Cодержит нецензурную лексику!
** - содержит нецензурную лексику! (в количестве двух слов)


Скачать .torrent 4.76 ГБ


Download
Для скачивания .torrent файлов необходима регистрация
Сайт не распространяет и не хранит электронные версии произведений, а лишь предоставляет доступ к создаваемому пользователями каталогу ссылок на торрент-файлы, которые содержат только списки хеш-сумм

Страница 1 из 1

Ответить на тему

   Похожие торренты   Торрент 




cron