Регистрация ·  Логин: Пароль: Запомнить   · Забыли пароль?




Ответить на тему
Статистика раздачи
Размер: 684.55 МБ | Зарегистрирован: 10 мар 2018, 13:13 | .torrent скачан: 0 раз(а)
Сидеров: [ 0  | 0 байт/сек ]   Личеров: [ 0  | 0 байт/сек ]   DHT: [ 0 / 0 ]
Автор Сообщение

Модератор
Аватара пользователя

Стаж: 6 лет
Сообщения: 7870
Молдова

Сообщение 10 мар 2018, 13:13 

[Цитировать]

Heinrich Schlusnus — Liederalbum, Vol. 2: — Beethoven, Schubert, Schumann, Loewe, Liszt, Brahms, Wolf, Strauss, etc. (with Michael Raucheisen, Sebastian Peschko) — 2 CDs, 1934-38/1994, Preiser Records

Жанр: Classical
Год издания дисков: 1994
Издатель (лейбл): Preiser Records
Номер по каталогу: 89206
Дата записи: 1934-38
Аудиокодек: APE
Тип рипа: image+.cue
Битрейт аудио: lossless
Продолжительность: 75' 37'' + 77' 12''
Источник: "Погружение в классику" (nibelung)
Наличие сканов в содержимом раздачи: даСердечная благодарность многоуважаемому и почитаемому Nibelung'у
за подарок этой удивительной коллекции!!!
COMPACT DISC I
BEETHOVEN
01. An die Hoffnung
02. Der Wachtelschlag
03. Andenken
SCHUBERT
04. Ständchen
05. Sei mir gegrüßt
06. An Sylvia
07. An die Leier
08. Frühlingsglaube
09. Der Wanderer
10. An Schwager Kronos
SCHUMANN
11. Frühlingsfahrt
12. Wanderlied
13. Der Soldat
14. Mondnacht
LOEWE
15. Die Uhr
16. Das Erkennen
17. Tom der Reimer
18. Der Schatzgräber
19. Der Nöck
COMPACT DISC II
LISZT
01. Die drei Zigeuner
02. O komm im Traum
GRETCHANINOFF
03. Die Nacht
TCHAIKOVSKY
04. Gesegnet seid mir, Wald und Au
BRAHMS
05. Auf dem See
06. Feldeinsamkeit
07. Wie bist du, meine Königin
08. Ruhe, Süßliebchen, im Schatten
09. Der Gang zum Liebchen
10. Am Sonntagmorgen
11. Die Mainacht
12. Botschaft
WOLF
13. Ständchen
14. Gesang Weylas
15. Storchenbotschaft
16. Anakreons Grab
17. Gebet
18. Abschied
19. Heimweh
STRAUSS
20. Winterliebe
21. Nachtgang
22. Heimliche Aufforderung
23. Ständchen
24. Ich trage meine Minne
25. Heimkehr
26. Zueignung
27. Ich liebe dich
Heinrich Schlusnus, baritone
Michael Raucheisen, piano (CD I, 10 & 13; CD II, 20 & 21)
Sebastian Peschko, piano (all the other titles)
[code][/code]
Exact Audio Copy V1.0 beta 1 from 15. November 2010
EAC extraction logfile from 25. May 2012, 15:51
Heinrich Schlusnus / Liederalbum Vol II CD1
Used drive : ASUS DRW-1608P Adapter: 0 ID: 0
Read mode : Secure
Utilize accurate stream : Yes
Defeat audio cache : Yes
Make use of C2 pointers : No
Read offset correction : 48
Overread into Lead-In and Lead-Out : No
Fill up missing offset samples with silence : Yes
Delete leading and trailing silent blocks : No
Null samples used in CRC calculations : Yes
Used interface : Installed external ASPI interface
Used output format : Monkey's Audio Lossless Encoder v3.99 DLL
Sample format : High Lossless Compression
TOC of the extracted CD
Track | Start | Length | Start sector | End sector
---------------------------------------------------------
1 | 0:00.00 | 7:01.10 | 0 | 31584
2 | 7:01.10 | 3:43.67 | 31585 | 48376
3 | 10:45.02 | 3:23.65 | 48377 | 63666
4 | 14:08.67 | 3:30.03 | 63667 | 79419
5 | 17:38.70 | 4:10.62 | 79420 | 98231
6 | 21:49.57 | 3:02.63 | 98232 | 111944
7 | 24:52.45 | 3:35.27 | 111945 | 128096
8 | 28:27.72 | 2:43.05 | 128097 | 140326
9 | 31:11.02 | 4:25.60 | 140327 | 160261
10 | 35:36.62 | 2:59.25 | 160262 | 173711
11 | 38:36.12 | 3:13.15 | 173712 | 188201
12 | 41:49.27 | 3:38.48 | 188202 | 204599
13 | 45:28.00 | 2:59.25 | 204600 | 218049
14 | 48:27.25 | 3:20.55 | 218050 | 233104
15 | 51:48.05 | 4:09.52 | 233105 | 251831
16 | 55:57.57 | 3:31.00 | 251832 | 267656
17 | 59:28.57 | 4:45.60 | 267657 | 289091
18 | 64:14.42 | 4:44.28 | 289092 | 310419
19 | 68:58.70 | 6:38.20 | 310420 | 340289
Range status and errors
Selected range
Filename D:\Downloads\Heinrich Schlusnus - Liederalbum Vol II CD1.ape
Peak level 90.9 %
Extraction speed 0.7 X
Range quality 100.0 %
Copy CRC A7CADFA2
Copy OK
No errors occurred
AccurateRip summary
Track 1 accurately ripped (confidence 1) [2A83E80B]
Track 2 accurately ripped (confidence 1) [DC496E86]
Track 3 accurately ripped (confidence 1) [B0958705]
Track 4 accurately ripped (confidence 1) [F1AFAE45]
Track 5 accurately ripped (confidence 1) [55A70733]
Track 6 accurately ripped (confidence 1) [BAE0BAAB]
Track 7 accurately ripped (confidence 1) [EE02B7B2]
Track 8 accurately ripped (confidence 1) [26839852]
Track 9 accurately ripped (confidence 1) [54E9C574]
Track 10 accurately ripped (confidence 1) [D30E8A76]
Track 11 accurately ripped (confidence 1) [8E80584D]
Track 12 accurately ripped (confidence 1) [6B2F4083]
Track 13 cannot be verified as accurate (confidence 1) [264CD5E0], AccurateRip returned [08AAA4A7]
Track 14 accurately ripped (confidence 1) [170D1370]
Track 15 accurately ripped (confidence 1) [7539DFBF]
Track 16 accurately ripped (confidence 1) [E06F6502]
Track 17 accurately ripped (confidence 1) [8C03DD13]
Track 18 cannot be verified as accurate (confidence 1) [D10F34CF], AccurateRip returned [35109894]
Track 19 accurately ripped (confidence 1) [731B6128]
17 track(s) accurately ripped
2 track(s) could not be verified as accurate
Some tracks could not be verified as accurate
End of status report
Exact Audio Copy V1.0 beta 1 from 15. November 2010
EAC extraction logfile from 25. May 2012, 16:02
Heinrich Schlusnus / Liederalbum Vol II CD2
Used drive : ASUS DRW-1608P Adapter: 0 ID: 0
Read mode : Secure
Utilize accurate stream : Yes
Defeat audio cache : Yes
Make use of C2 pointers : No
Read offset correction : 48
Overread into Lead-In and Lead-Out : No
Fill up missing offset samples with silence : Yes
Delete leading and trailing silent blocks : No
Null samples used in CRC calculations : Yes
Used interface : Installed external ASPI interface
Used output format : Monkey's Audio Lossless Encoder v3.99 DLL
Sample format : High Lossless Compression
TOC of the extracted CD
Track | Start | Length | Start sector | End sector
---------------------------------------------------------
1 | 0:00.00 | 4:43.50 | 0 | 21274
2 | 4:43.50 | 4:12.35 | 21275 | 40209
3 | 8:56.10 | 2:58.45 | 40210 | 53604
4 | 11:54.55 | 3:30.65 | 53605 | 69419
5 | 15:25.45 | 3:04.40 | 69420 | 83259
6 | 18:30.10 | 3:31.22 | 83260 | 99106
7 | 22:01.32 | 3:58.13 | 99107 | 116969
8 | 25:59.45 | 4:47.52 | 116970 | 138546
9 | 30:47.22 | 1:22.55 | 138547 | 144751
10 | 32:10.02 | 1:30.68 | 144752 | 151569
11 | 33:40.70 | 3:26.40 | 151570 | 167059
12 | 37:07.35 | 1:54.67 | 167060 | 175676
13 | 39:02.27 | 3:03.53 | 175677 | 189454
14 | 42:06.05 | 1:40.02 | 189455 | 196956
15 | 43:46.07 | 3:29.58 | 196957 | 212689
16 | 47:15.65 | 3:27.30 | 212690 | 228244
17 | 50:43.20 | 2:21.47 | 228245 | 238866
18 | 53:04.67 | 2:57.10 | 238867 | 252151
19 | 56:02.02 | 2:15.23 | 252152 | 262299
20 | 58:17.25 | 1:43.05 | 262300 | 270029
21 | 60:00.30 | 2:43.22 | 270030 | 282276
22 | 62:43.52 | 3:03.50 | 282277 | 296051
23 | 65:47.27 | 2:25.50 | 296052 | 306976
24 | 68:13.02 | 2:45.28 | 306977 | 319379
25 | 70:58.30 | 2:14.62 | 319380 | 329491
26 | 73:13.17 | 1:39.63 | 329492 | 336979
27 | 74:53.05 | 2:19.40 | 336980 | 347444
Range status and errors
Selected range
Filename D:\Downloads\Heinrich Schlusnus - Liederalbum Vol II CD2.ape
Peak level 89.9 %
Extraction speed 0.2 X
Range quality 99.9 %
Copy CRC 224868FE
Copy OK
No errors occurred
AccurateRip summary
Track 1 not present in database
Track 2 not present in database
Track 3 not present in database
Track 4 not present in database
Track 5 not present in database
Track 6 not present in database
Track 7 not present in database
Track 8 not present in database
Track 9 not present in database
Track 10 not present in database
Track 11 not present in database
Track 12 not present in database
Track 13 not present in database
Track 14 not present in database
Track 15 not present in database
Track 16 not present in database
Track 17 not present in database
Track 18 not present in database
Track 19 not present in database
Track 20 not present in database
Track 21 not present in database
Track 22 not present in database
Track 23 not present in database
Track 24 not present in database
Track 25 not present in database
Track 26 not present in database
Track 27 not present in database
None of the tracks are present in the AccurateRip database
End of status report


Скачать торрент 684.55 МБ


Download
Для скачивания .torrent файлов необходима регистрация
Сайт не распространяет и не хранит электронные версии произведений, а лишь предоставляет доступ к создаваемому пользователями каталогу ссылок на торрент-файлы, которые содержат только списки хеш-сумм

Страница 1 из 1

Ответить на тему

   Похожие торренты   Торрент