Регистрация ·  Логин: Пароль: Запомнить   · Забыли пароль?




Ответить на тему
Статистика раздачи
Размер: 340.63 МБ | Зарегистрирован: 10 мар 2018, 13:14 | .torrent скачан: 0 раз(а)
Сидеров: [ 0  | 0 байт/сек ]   Личеров: [ 0  | 0 байт/сек ]   DHT: [ 0 / 0 ]
Автор Сообщение

Модератор
Аватара пользователя

Стаж: 6 лет
Сообщения: 7870
Молдова

Сообщение 10 мар 2018, 13:14 

[Цитировать]

Heinrich Schlusnus — Liederalbum, Vol. 3: — Beethoven, Schubert, Schumann, Brahms, Wolf, Strauss, etc. (with Sebastian Peschko; Orchester der Staatsoper, Berlin) — 2 CDs, 1939-43/1995, Preiser Records

Жанр: Classical
Год издания диска: 1995
Издатель (лейбл): Preiser Records
Номер по каталогу: 89216
Дата записи: 1939-43
Аудиокодек: APE
Тип рипа: image+.cue
Битрейт аудио: lossless
Продолжительность: 75‘ 53‘‘ + 70‘11‘‘
Источник: "Погружение в классику" (nibelung)
Наличие сканов в содержимом раздачи: даСердечная благодарность многоуважаемому и почитаемому Nibelung'у
за подарок этой удивительной коллекции!!!
COMPACT DISC I
BEETHOVEN
01. An die ferne Geliebte
SCHUBERT
02. Im Frühling
03. Die Taubenpost
04. Alinde
05. Die Forelle
06. Liebesbotschaft
07. Kriegers Ahnung
08. Nachtstück
09. Lied eines Schiffers an die
10. Dioskuren
11. Wohin?
12. Der Blumenbrief
13. Nacht und Träume
14. Wanderers Nachtlied I
15. Wanderers Nachtlied II
16. Im Dorfe
17. Der Lindenbaum
18. Frühlingstraum
19. Wer nie sein Brot mit Tränen ass
20. Im Abendrot
COMPACT DISC II
SCHUMANN
01. Der Himmel hat eine Träne geweint
02. Röselein, Röselein
BRAHMS
03. Regenlied
04. Von ewiger Liebe
WOLF
05. Verborgenheit
06. Denk' es, o Seele
07. Auch kleine Dinge können uns entzücken
08. Der Gärtner
09. Selbstgeständnis
10. Begegnung
11. Fussreise
STRAUSS
12. Nachtgang
13. Ich trage meine Minne
14. Geduld
SCHILLINGS
15. Wie wundersam
LOTHAR
16. Der Pirol
VOLLERTHUN
17. Kinderlied
GRABERT
18. Lied der Glockenblumen
SCHOECK
19. Nachruf
WOLF
20. Anakreons Grab
21. Der Rattenfänger
STRAUSS
22. Winterweihe
23. Morgen!
24. Traum durch die Dämmerung
25. Liebeshymnus
26. Heinrich Schlusnus spricht
HEINRICH SCHLUSNUS spricht
Am Flügel: Sebastian Peschko - Orchester der Staatsoper, Berlin, Dirigent: Gerhard Steeger
AAD Historische Aufnahmen
[code][/code]
Exact Audio Copy V1.0 beta 1 from 15. November 2010
EAC extraction logfile from 25. May 2012, 14:36
Various / Heinrich Schlusnus Liederalbum Vol. 3 (CD 1)
Used drive : ASUS DRW-1608P Adapter: 0 ID: 0
Read mode : Secure
Utilize accurate stream : Yes
Defeat audio cache : Yes
Make use of C2 pointers : No
Read offset correction : 48
Overread into Lead-In and Lead-Out : No
Fill up missing offset samples with silence : Yes
Delete leading and trailing silent blocks : No
Null samples used in CRC calculations : Yes
Used interface : Installed external ASPI interface
Used output format : Monkey's Audio Lossless Encoder v3.99 DLL
Sample format : High Lossless Compression
TOC of the extracted CD
Track | Start | Length | Start sector | End sector
---------------------------------------------------------
1 | 0:00.00 | 13:20.12 | 0 | 60011
2 | 13:20.12 | 4:20.00 | 60012 | 79511
3 | 17:40.12 | 4:07.18 | 79512 | 98054
4 | 21:47.30 | 4:39.55 | 98055 | 119034
5 | 26:27.10 | 2:36.72 | 119035 | 130806
6 | 29:04.07 | 3:04.48 | 130807 | 144654
7 | 32:08.55 | 4:32.25 | 144655 | 165079
8 | 36:41.05 | 4:30.22 | 165080 | 185351
9 | 41:11.27 | 2:58.10 | 185352 | 198711
10 | 44:09.37 | 2:22.55 | 198712 | 209416
11 | 46:32.17 | 3:02.58 | 209417 | 223124
12 | 49:35.00 | 3:25.70 | 223125 | 238569
13 | 53:00.70 | 1:36.50 | 238570 | 245819
14 | 54:37.45 | 2:05.35 | 245820 | 255229
15 | 56:43.05 | 3:04.67 | 255230 | 269096
16 | 59:47.72 | 3:45.25 | 269097 | 285996
17 | 63:33.22 | 4:21.53 | 285997 | 305624
18 | 67:55.00 | 4:22.05 | 305625 | 325279
19 | 72:17.05 | 3:36.64 | 325280 | 341543
Range status and errors
Selected range
Filename D:\Downloads\Heinrich Schlusnus Liederalbum Vol. 3 (CD 1).ape
Peak level 93.9 %
Extraction speed 0.1 X
Range quality 99.9 %
Copy CRC 4FAB0C90
Copy OK
No errors occurred
AccurateRip summary
Track 1 cannot be verified as accurate (confidence 1) [06751FD4], AccurateRip returned [0632A877]
Track 2 cannot be verified as accurate (confidence 1) [9CBCA6F3], AccurateRip returned [42AD05A0]
Track 3 cannot be verified as accurate (confidence 1) [6A5EEB98], AccurateRip returned [80471030]
Track 4 cannot be verified as accurate (confidence 1) [1DAFFB2F], AccurateRip returned [5CAEC025]
Track 5 cannot be verified as accurate (confidence 1) [6B0BE0F4], AccurateRip returned [DFFC90FB]
Track 6 cannot be verified as accurate (confidence 1) [08DE19A8], AccurateRip returned [B73ACF84]
Track 7 cannot be verified as accurate (confidence 1) [981DCC6A], AccurateRip returned [0973CB55]
Track 8 cannot be verified as accurate (confidence 1) [B4239588], AccurateRip returned [2AEA00E5]
Track 9 cannot be verified as accurate (confidence 1) [7714F67C], AccurateRip returned [E8F1FA2F]
Track 10 cannot be verified as accurate (confidence 1) [09DCFCF3], AccurateRip returned [39C0774F]
Track 11 cannot be verified as accurate (confidence 1) [825DE5A4], AccurateRip returned [D6BD9863]
Track 12 cannot be verified as accurate (confidence 1) [7B3C595E], AccurateRip returned [DEDF0E66]
Track 13 cannot be verified as accurate (confidence 1) [77E77E4E], AccurateRip returned [5B1B3D21]
Track 14 cannot be verified as accurate (confidence 1) [551AB3AF], AccurateRip returned [A06B3D4B]
Track 15 cannot be verified as accurate (confidence 1) [A0F539F9], AccurateRip returned [FDD510B5]
Track 16 cannot be verified as accurate (confidence 1) [3E8E1E7C], AccurateRip returned [FC042F7B]
Track 17 cannot be verified as accurate (confidence 1) [D5CE8D12], AccurateRip returned [B6353E10]
Track 18 cannot be verified as accurate (confidence 1) [36C90E73], AccurateRip returned [6061B7E2]
Track 19 cannot be verified as accurate (confidence 1) [085BA0CF], AccurateRip returned [D8AEC0A0]
No tracks could be verified as accurate
You may have a different pressing from the one(s) in the database
End of status report
Exact Audio Copy V1.0 beta 1 from 15. November 2010
EAC extraction logfile from 25. May 2012, 15:40
Various / Heinrich Schlusnus- Liederalbum Vol. 3 (CD 2)
Used drive : ASUS DRW-1608P Adapter: 0 ID: 0
Read mode : Secure
Utilize accurate stream : Yes
Defeat audio cache : Yes
Make use of C2 pointers : No
Read offset correction : 48
Overread into Lead-In and Lead-Out : No
Fill up missing offset samples with silence : Yes
Delete leading and trailing silent blocks : No
Null samples used in CRC calculations : Yes
Used interface : Installed external ASPI interface
Used output format : Monkey's Audio Lossless Encoder v3.99 DLL
Sample format : High Lossless Compression
TOC of the extracted CD
Track | Start | Length | Start sector | End sector
---------------------------------------------------------
1 | 0:00.00 | 2:03.05 | 0 | 9229
2 | 2:03.05 | 2:07.72 | 9230 | 18826
3 | 4:11.02 | 4:23.08 | 18827 | 38559
4 | 8:34.10 | 4:12.42 | 38560 | 57501
5 | 12:46.52 | 3:01.63 | 57502 | 71139
6 | 15:48.40 | 3:08.05 | 71140 | 85244
7 | 18:56.45 | 1:51.25 | 85245 | 93594
8 | 20:47.70 | 1:28.30 | 93595 | 100224
9 | 22:16.25 | 1:18.29 | 100225 | 106103
10 | 23:34.54 | 1:49.63 | 106104 | 114341
11 | 25:24.42 | 2:57.55 | 114342 | 127671
12 | 28:22.22 | 2:36.55 | 127672 | 139426
13 | 30:59.02 | 2:55.35 | 139427 | 152586
14 | 33:54.37 | 3:30.43 | 152587 | 168379
15 | 37:25.05 | 2:33.65 | 168380 | 179919
16 | 39:58.70 | 2:26.67 | 179920 | 190936
17 | 42:25.62 | 3:32.70 | 190937 | 206906
18 | 45:58.57 | 2:28.08 | 206907 | 218014
19 | 48:26.65 | 2:56.40 | 218015 | 231254
20 | 51:23.30 | 4:03.12 | 231255 | 249491
21 | 55:26.42 | 2:39.20 | 249492 | 261436
22 | 58:05.62 | 2:51.53 | 261437 | 274314
23 | 60:57.40 | 3:25.57 | 274315 | 289746
24 | 64:23.22 | 2:47.70 | 289747 | 302341
25 | 67:11.17 | 2:16.25 | 302342 | 312566
26 | 69:27.42 | 0:44.00 | 312567 | 315866
Range status and errors
Selected range
Filename D:\Downloads\Heinrich Schlusnus- Liederalbum Vol. 3 (CD 2).ape
Peak level 93.1 %
Extraction speed 0.0 X
Range quality 99.9 %
Copy CRC B09DA3C5
Copy OK
No errors occurred
AccurateRip summary
Track 1 cannot be verified as accurate (confidence 1) [FD10769A], AccurateRip returned [42D4985C]
Track 2 cannot be verified as accurate (confidence 1) [9168D9D9], AccurateRip returned [FA2A9987]
Track 3 cannot be verified as accurate (confidence 1) [725DD59A], AccurateRip returned [750CDBBE]
Track 4 cannot be verified as accurate (confidence 1) [555EC327], AccurateRip returned [73038021]
Track 5 cannot be verified as accurate (confidence 1) [08F387AF], AccurateRip returned [9C87FC5F]
Track 6 cannot be verified as accurate (confidence 1) [9C9B9613], AccurateRip returned [9E52DA1B]
Track 7 cannot be verified as accurate (confidence 1) [D1DDB77A], AccurateRip returned [FC91C88F]
Track 8 cannot be verified as accurate (confidence 1) [775CB983], AccurateRip returned [0DEB05BE]
Track 9 cannot be verified as accurate (confidence 1) [05691CE4], AccurateRip returned [51AB9F90]
Track 10 cannot be verified as accurate (confidence 1) [CD1826F0], AccurateRip returned [F2136907]
Track 11 cannot be verified as accurate (confidence 1) [58D5B70F], AccurateRip returned [0770C039]
Track 12 cannot be verified as accurate (confidence 1) [5FB73200], AccurateRip returned [BAFE743A]
Track 13 cannot be verified as accurate (confidence 1) [A8368610], AccurateRip returned [2CF446A7]
Track 14 cannot be verified as accurate (confidence 1) [EE5FD7A0], AccurateRip returned [DFC5B664]
Track 15 cannot be verified as accurate (confidence 1) [27F069E6], AccurateRip returned [8FA8D1A7]
Track 16 cannot be verified as accurate (confidence 1) [7571823D], AccurateRip returned [76FCC082]
Track 17 cannot be verified as accurate (confidence 1) [A1503A93], AccurateRip returned [EDC93AA3]
Track 18 cannot be verified as accurate (confidence 1) [AC7E6EFF], AccurateRip returned [9C39114D]
Track 19 cannot be verified as accurate (confidence 1) [081973B0], AccurateRip returned [C185372E]
Track 20 cannot be verified as accurate (confidence 1) [2C809D23], AccurateRip returned [DB09C6FE]
Track 21 cannot be verified as accurate (confidence 1) [8E7686B3], AccurateRip returned [BAF0F1C8]
Track 22 cannot be verified as accurate (confidence 1) [85CA3AE4], AccurateRip returned [9B65CDCE]
Track 23 cannot be verified as accurate (confidence 1) [823708B8], AccurateRip returned [41806F6D]
Track 24 cannot be verified as accurate (confidence 1) [CBBF2574], AccurateRip returned [1E10D11F]
Track 25 cannot be verified as accurate (confidence 1) [B7521773], AccurateRip returned [364AB872]
Track 26 cannot be verified as accurate (confidence 1) [3E8F38E5], AccurateRip returned [C4E998EA]
No tracks could be verified as accurate
You may have a different pressing from the one(s) in the database
End of status report


Скачать торрент 340.63 МБ


Download
Для скачивания .torrent файлов необходима регистрация
Сайт не распространяет и не хранит электронные версии произведений, а лишь предоставляет доступ к создаваемому пользователями каталогу ссылок на торрент-файлы, которые содержат только списки хеш-сумм

Страница 1 из 1

Ответить на тему

   Похожие торренты   Торрент 




cron