Регистрация ·  Логин: Пароль: Запомнить   · Забыли пароль?




Ответить на тему
Статистика раздачи
Размер: 471.98 МБ | Зарегистрирован: 10 мар 2018, 13:14 | .torrent скачан: 0 раз(а)
Сидеров: [ 0  | 0 байт/сек ]   Личеров: [ 0  | 0 байт/сек ]   DHT: [ 0 / 0 ]
Автор Сообщение

Модератор
Аватара пользователя

Стаж: 6 лет
Сообщения: 7870
Молдова

Сообщение 10 мар 2018, 13:14 

[Цитировать]

Heinrich Schlusnus — Liederalbum, Vol. 1: — Beethoven, Schubert, Schumann, Mendelssohn, Brahms, Wolf, Strauss, Liszt, Mahler, etc. (with Franz Rupp; State Opera Orchestra, Berlin) — 2 CDs, 1930-34/1999, Preiser

Жанр: Classical
Год издания диска: 1999
Издатель (лейбл): Preiser
Номер по каталогу: 89205
Дата записи: 1930-34
Аудиокодек: APE
Тип рипа: image+.cue
Битрейт аудио: lossless
Продолжительность: 65‘ 12‘‘ + 73‘ 24‘‘
Источник: "Погружение в классику" (nibelung)
Наличие сканов в содержимом раздачи: даСердечная благодарность многоуважаемому и почитаемому Nibelung'у
за подарок этой удивительной коллекции!!!
COMPACT DISC I
BEETHOVEN
01. Adelaide
02. Ich liebe dich
03. In questa tomba oscura
SCHUBERT
04. Am See
05. Der Jüngling an der Quelle
06. Der Musensohn
07. Der Wanderer an den Mond
08. Der zürnende Barde
09. Geheimes
10. Der Neugierige
11. Erlkönig
SCHUMANN
12. Flutenreicher Ebro
13. Der Hidalgo
14. Die beiden Grenadiere
15. Provencalisches Lied
16. Talismane
MENDELSSOHN BARTHOLDY
17. Auf Flügeln des Gesanges
18. Venezianisches Gondellied
BRAHMS
19. Minnelied
20. Ständchen
WOLF
21. An die Geliebte
22. Dass doch gemalt all deine Reize
23. Frühling über's Jahr
24. Der Schreckenberger
COMPACT DISC II
BRAHMS
01. An die Tauben
02. Wenn du nur zuweilen lächelst
03. Tambourliedchen
STRAUSS
04. Traum durch die Dämmerung
05. Freundliche Vision
06. Morgen!
07. Geduld
WETZEL
08. In Danzig
GRAENER
09. Der König
10. Winter
11. Vale carissima
GIORDANI
12. Caro mio ben
HÄNDEL
13. Dank sei dir, Herr
BEETHOVEN
14. Die Ehre Gottes aus der Natur
SCHUBERT
15. Dem Unendlichen
16. Du bist die Ruh'
LISZT
17. Es muss ein Wunderbares sein
18. Im Rhein, im schönen Strome
MOUSSORGSKY / МУСОРГСКИЙ
19. Flohlied
MAHLER
20. Der Tamboursg'sell
21. Rheinlegendchen
WEINGARTNER
22. Liebesfeier
HERMANN
23. Mahnung
24. Drei Wandrer
Heinrich Schlusnus, baritone
Piano Accompaniment by Franz Rupp CD I, 1-24; CD 2, 1-11; Organ Accompaniment by Franz Rupp CD II, 12
With State Opera Orchestra, Berlin
Conductors: Hermann Weigert CD II. 13, 14, 20, 21; Alois Melichar CD II 15-19, 22-24
[code][/code]
Exact Audio Copy V1.0 beta 1 from 15. November 2010
EAC extraction logfile from 25. May 2012, 16:12
Schlusnus Heinrich / Schlusnus - Liederalbum
Used drive : ASUS DRW-1608P Adapter: 0 ID: 0
Read mode : Secure
Utilize accurate stream : Yes
Defeat audio cache : Yes
Make use of C2 pointers : No
Read offset correction : 48
Overread into Lead-In and Lead-Out : No
Fill up missing offset samples with silence : Yes
Delete leading and trailing silent blocks : No
Null samples used in CRC calculations : Yes
Used interface : Installed external ASPI interface
Used output format : Monkey's Audio Lossless Encoder v3.99 DLL
Sample format : High Lossless Compression
TOC of the extracted CD
Track | Start | Length | Start sector | End sector
---------------------------------------------------------
1 | 0:00.00 | 5:59.37 | 0 | 26961
2 | 5:59.37 | 2:00.63 | 26962 | 36024
3 | 8:00.25 | 2:46.27 | 36025 | 48501
4 | 10:46.52 | 2:09.43 | 48502 | 58219
5 | 12:56.20 | 2:07.47 | 58220 | 67791
6 | 15:03.67 | 2:15.68 | 67792 | 77984
7 | 17:19.60 | 2:59.05 | 77985 | 91414
8 | 20:18.65 | 1:56.62 | 91415 | 100176
9 | 22:15.52 | 2:18.00 | 100177 | 110526
10 | 24:33.52 | 3:12.10 | 110527 | 124936
11 | 27:45.62 | 4:03.20 | 124937 | 143181
12 | 31:49.07 | 3:06.40 | 143182 | 157171
13 | 34:55.47 | 2:58.35 | 157172 | 170556
14 | 37:54.07 | 3:57.35 | 170557 | 188366
15 | 41:51.42 | 2:12.30 | 188367 | 198296
16 | 44:03.72 | 2:47.50 | 198297 | 210871
17 | 46:51.47 | 2:21.18 | 210872 | 221464
18 | 49:12.65 | 2:39.15 | 221465 | 233404
19 | 51:52.05 | 2:22.12 | 233405 | 244066
20 | 54:14.17 | 1:56.40 | 244067 | 252806
21 | 56:10.57 | 3:25.23 | 252807 | 268204
22 | 59:36.05 | 2:10.32 | 268205 | 277986
23 | 61:46.37 | 1:49.60 | 277987 | 286221
24 | 63:36.22 | 1:36.48 | 286222 | 293469
Range status and errors
Selected range
Filename D:\Downloads\Schlusnus Heinrich - Schlusnus - Liederalbum.ape
Peak level 100.0 %
Extraction speed 0.2 X
Range quality 100.0 %
Copy CRC D3E9C35A
Copy OK
No errors occurred
AccurateRip summary
Track 1 not present in database
Track 2 not present in database
Track 3 not present in database
Track 4 not present in database
Track 5 not present in database
Track 6 not present in database
Track 7 not present in database
Track 8 not present in database
Track 9 not present in database
Track 10 not present in database
Track 11 not present in database
Track 12 not present in database
Track 13 not present in database
Track 14 not present in database
Track 15 not present in database
Track 16 not present in database
Track 17 not present in database
Track 18 not present in database
Track 19 not present in database
Track 20 not present in database
Track 21 not present in database
Track 22 not present in database
Track 23 not present in database
Track 24 not present in database
None of the tracks are present in the AccurateRip database
End of status report
Exact Audio Copy V1.0 beta 1 from 15. November 2010
EAC extraction logfile from 25. May 2012, 16:26
Schlusnus / Heinrich Schlusnus Liederalbum CD2
Used drive : ASUS DRW-1608P Adapter: 0 ID: 0
Read mode : Secure
Utilize accurate stream : Yes
Defeat audio cache : Yes
Make use of C2 pointers : No
Read offset correction : 48
Overread into Lead-In and Lead-Out : No
Fill up missing offset samples with silence : Yes
Delete leading and trailing silent blocks : No
Null samples used in CRC calculations : Yes
Used interface : Installed external ASPI interface
Used output format : Monkey's Audio Lossless Encoder v3.99 DLL
Sample format : High Lossless Compression
TOC of the extracted CD
Track | Start | Length | Start sector | End sector
---------------------------------------------------------
1 | 0:00.00 | 1:59.02 | 0 | 8926
2 | 1:59.02 | 1:41.03 | 8927 | 16504
3 | 3:40.05 | 1:36.65 | 16505 | 23769
4 | 5:16.70 | 2:46.40 | 23770 | 36259
5 | 8:03.35 | 2:51.22 | 36260 | 49106
6 | 10:54.57 | 3:31.58 | 49107 | 64989
7 | 14:26.40 | 3:48.02 | 64990 | 82091
8 | 18:14.42 | 3:14.10 | 82092 | 96651
9 | 21:28.52 | 1:38.65 | 96652 | 104066
10 | 23:07.42 | 2:24.65 | 104067 | 114931
11 | 25:32.32 | 3:33.18 | 114932 | 130924
12 | 29:05.50 | 3:39.30 | 130925 | 147379
13 | 32:45.05 | 3:27.70 | 147380 | 162974
14 | 36:13.00 | 2:26.50 | 162975 | 173974
15 | 38:39.50 | 3:59.60 | 173975 | 191959
16 | 42:39.35 | 4:38.65 | 191960 | 212874
17 | 47:18.25 | 2:08.40 | 212875 | 222514
18 | 49:26.65 | 3:47.60 | 222515 | 239599
19 | 53:14.50 | 3:49.47 | 239600 | 256821
20 | 57:04.22 | 4:56.28 | 256822 | 279049
21 | 62:00.50 | 3:36.35 | 279050 | 295284
22 | 65:37.10 | 2:24.35 | 295285 | 306119
23 | 68:01.45 | 1:48.57 | 306120 | 314276
24 | 69:50.27 | 3:34.35 | 314277 | 330361
Range status and errors
Selected range
Filename D:\Downloads\Heinrich Schlusnus Liederalbum CD2.ape
Peak level 100.0 %
Extraction speed 0.4 X
Range quality 99.9 %
Copy CRC A0F7FCCB
Copy OK
No errors occurred
AccurateRip summary
Track 1 not present in database
Track 2 not present in database
Track 3 not present in database
Track 4 not present in database
Track 5 not present in database
Track 6 not present in database
Track 7 not present in database
Track 8 not present in database
Track 9 not present in database
Track 10 not present in database
Track 11 not present in database
Track 12 not present in database
Track 13 not present in database
Track 14 not present in database
Track 15 not present in database
Track 16 not present in database
Track 17 not present in database
Track 18 not present in database
Track 19 not present in database
Track 20 not present in database
Track 21 not present in database
Track 22 not present in database
Track 23 not present in database
Track 24 not present in database
None of the tracks are present in the AccurateRip database
End of status report


Скачать торрент 471.98 МБ


Download
Для скачивания .torrent файлов необходима регистрация
Сайт не распространяет и не хранит электронные версии произведений, а лишь предоставляет доступ к создаваемому пользователями каталогу ссылок на торрент-файлы, которые содержат только списки хеш-сумм

Страница 1 из 1

Ответить на тему

   Похожие торренты   Торрент