Регистрация ·  Логин: Пароль: Запомнить   · Забыли пароль?




Ответить на тему
Статистика раздачи
Размер: 257.19 МБ | Зарегистрирован: 10 мар 2018, 13:14 | .torrent скачан: 0 раз(а)
Сидеров: [ 0  | 0 байт/сек ]   Личеров: [ 0  | 0 байт/сек ]   DHT: [ 0 / 0 ]
Автор Сообщение

Модератор
Аватара пользователя

Стаж: 6 лет
Сообщения: 7870
Молдова

Сообщение 10 мар 2018, 13:14 

[Цитировать]

William Byrd - Consort Songs - Robin Blaze, Concordia

Жанр: Classical, vocal
Страна-производитель диска: UK
Год издания диска: 2004
Издатель (лейбл): Hyperion
Номер по каталогу: CDA67397
Дата записи: 2003
Аудиокодек: FLAC
Тип рипа: image+.cue
Битрейт аудио: lossless
Продолжительность: 67:21
Источник: собственный рип
Наличие сканов в содержимом раздачи: да
Треклист:
William Byrd (1543-1623)
[1] Rejoice unto the Lord
[2] Ah silly Soul
[3] An aged dame
[4] O dear life, when may it be
[5] Come to me, grief, for ever
[6] Who likes to love
[7] O that most rare breast
[8] All as a sea
[9] Ye sacred Muses
[10] Constant Penelope
[11] O God that guides the cheerful sun
[12] Lullaby: My sweet little baby
[13] How vain the toils
Исполнители:
Robin Blaze countertenor
Concordia
Mark Levy, Emilia Benjamin, Reiko Ichise, Alison MsGillivray, Joanna Levine viols
Elizabeth Kenny lute
Код:
Exact Audio Copy V0.99 prebeta 5 from 4. May 2009
EAC extraction logfile from 16. October 2011, 16:53
Robin Blaze, Concordia / Byrd - Consort Songs
Used drive  : HL-DT-STDVDRAM GSA-4083N   Adapter: 1  ID: 0
Read mode               : Secure
Utilize accurate stream : Yes
Defeat audio cache      : Yes
Make use of C2 pointers : No
Read offset correction                      : 667
Overread into Lead-In and Lead-Out          : No
Fill up missing offset samples with silence : Yes
Delete leading and trailing silent blocks   : No
Null samples used in CRC calculations       : No
Used interface                              : Native Win32 interface for Win NT & 2000
Used output format              : User Defined Encoder
Selected bitrate                : 768 kBit/s
Quality                         : High
Add ID3 tag                     : No
Command line compressor         : C:\Program Files\Exact Audio Copy\FLAC\FLAC.EXE
Additional command line options : -6 -V -T "ARTIST=%a" -T "TITLE=%t" -T "ALBUM=%g" -T "DATE=%y" -T "TRACKNUMBER=%n" -T "GENRE=%m" -T "COMMENT=%e" %s -o %d
TOC of the extracted CD
     Track |   Start  |  Length  | Start sector | End sector
    ---------------------------------------------------------
        1  |  0:00.00 |  4:10.36 |         0    |    18785
        2  |  4:10.36 |  3:08.66 |     18786    |    32951
        3  |  7:19.27 |  1:59.48 |     32952    |    41924
        4  |  9:19.00 |  5:54.45 |     41925    |    68519
        5  | 15:13.45 |  7:12.66 |     68520    |   100985
        6  | 22:26.36 |  5:23.18 |    100986    |   125228
        7  | 27:49.54 |  9:21.49 |    125229    |   167352
        8  | 37:11.28 |  2:48.03 |    167353    |   179955
        9  | 39:59.31 |  4:04.05 |    179956    |   198260
       10  | 44:03.36 |  2:18.27 |    198261    |   208637
       11  | 46:21.63 |  6:04.51 |    208638    |   235988
       12  | 52:26.39 | 12:13.45 |    235989    |   291008
       13  | 64:40.09 |  2:41.39 |    291009    |   303122
Range status and errors
Selected range
     Filename F:\Music\Byrd - Consort Songs\Byrd - Consort Songs.wav
     Peak level 55.8 %
     Range quality 99.9 %
     Copy CRC A880A49F
     Copy OK
No errors occurred
End of status report


Скачать торрент 257.19 МБ


Download
Для скачивания .torrent файлов необходима регистрация
Сайт не распространяет и не хранит электронные версии произведений, а лишь предоставляет доступ к создаваемому пользователями каталогу ссылок на торрент-файлы, которые содержат только списки хеш-сумм

Страница 1 из 1

Ответить на тему

   Похожие торренты   Торрент