Регистрация ·  Логин: Пароль: Запомнить   · Забыли пароль?




Ответить на тему
Статистика раздачи
Размер: 229.65 МБ | Зарегистрирован: 10 мар 2018, 13:14 | .torrent скачан: 0 раз(а)
Сидеров: [ 1  | 0 байт/сек ]   Личеров: [ 0  | 0 байт/сек ]   DHT: [ 1 / 0 ]
Автор Сообщение

Модератор
Аватара пользователя

Стаж: 6 лет
Сообщения: 7870
Молдова

Сообщение 10 мар 2018, 13:14 

[Цитировать]

Korngold, Mahler, Alma Mahler - Lieder - A. Kirchschlager, H. Deutsch

Жанр: Lied
Страна-производитель диска: Germany
Год издания диска: 1996
Издатель (лейбл): Sony Classical
Номер по каталогу: SK 68344
Дата записи: 1996
Аудиокодек: APE
Тип рипа: image+.cue
Битрейт аудио: lossless
Продолжительность: 1:05:03
Источник: скачано с
сайт-источник/ник/другое: web
Наличие сканов в содержимом раздачи: нет
Треклист:
Erich Wolfgang Korngold - Funf Lieder op. 38
[01] I. Gluckwunsch
[02] II. Der Kranke
[03] III. Alt-spanisch
[04] IV. Old english song
[05] V. My Mistress' Eyes
Alma Schindler-Mahler
[06] Die stille Stadt
[07] In meines Vaters Garten
[08] Laue Sommernacht
[09] Bei dir ist es traut
[10] Ich wandle unter Blumen
Erich Wolfgang Korngold - Songs of the Clown op. 29
[11] I. Come away, Death
[12] II. O Mistress Mine
[13] III. Adieu Good Man Davil
[14] IV. Hey Robin
[15] V. For the Rain, it raineth every Day
Gustav Mahler
[16] Fruhlingsmorgen
[17] Erinnerung
[18] Hans und Grete
[19] Serenade
[20] Phantasie
[21] Um schlimme Kinder artig zu machen
[22] Ich ging mit Lust
[23] Aus! Aus!
[24] Starke Einbildungskraft
[25] Zu Strassburg auf der Schanz'
[26] Ablosung im Sommer
[27] Scheiden und Meiden
[28] Nicht wiedersehen!
[29] Selbstgefuhl
Исполнители:
Angelika Kirchschlager, mezzo soprano
Helmut Deutsch, piano
Код:
PERFORMER "Angelika Kirschschlager"
TITLE "Debut Recital Recording"
FILE "Kirchschlager.ape" WAVE
  TRACK 01 AUDIO
    TITLE "Glückwunsch"
    PERFORMER "Angelika Kirschschlager"
    INDEX 01 00:00:00
  TRACK 02 AUDIO
    TITLE "Der Kranke"
    PERFORMER "Angelika Kirschschlager"
    INDEX 01 02:16:70
  TRACK 03 AUDIO
    TITLE "Alt-spanisch"
    PERFORMER "Angelika Kirschschlager"
    INDEX 01 04:35:37
  TRACK 04 AUDIO
    TITLE "Old English Song"
    PERFORMER "Angelika Kirschschlager"
    INDEX 01 05:59:72
  TRACK 05 AUDIO
    TITLE "My Mistress' Eyes"
    PERFORMER "Angelika Kirschschlager"
    INDEX 01 07:00:42
  TRACK 06 AUDIO
    TITLE "Die stille Stadt"
    PERFORMER "Angelika Kirschschlager"
    INDEX 00 09:02:67
    INDEX 01 09:06:42
  TRACK 07 AUDIO
    TITLE "In meines Vaters Garten"
    PERFORMER "Angelika Kirschschlager"
    INDEX 01 12:04:60
  TRACK 08 AUDIO
    TITLE "Laue Sommernacht"
    PERFORMER "Angelika Kirschschlager"
    INDEX 01 17:01:65
  TRACK 09 AUDIO
    TITLE "Bei dir ist es traut"
    PERFORMER "Angelika Kirschschlager"
    INDEX 01 18:52:47
  TRACK 10 AUDIO
    TITLE "Ich wandle unter Blumen"
    PERFORMER "Angelika Kirschschlager"
    INDEX 00 20:47:20
    INDEX 01 20:47:47
  TRACK 11 AUDIO
    TITLE "Come Away, Death"
    PERFORMER "Angelika Kirschschlager"
    INDEX 00 21:54:15
    INDEX 01 21:57:45
  TRACK 12 AUDIO
    TITLE "O Mistress Mine"
    PERFORMER "Angelika Kirschschlager"
    INDEX 01 24:03:52
  TRACK 13 AUDIO
    TITLE "Adieu, Good Man Devil"
    PERFORMER "Angelika Kirschschlager"
    INDEX 01 26:14:35
  TRACK 14 AUDIO
    TITLE "Hey, Robin!"
    PERFORMER "Angelika Kirschschlager"
    INDEX 01 27:05:12
  TRACK 15 AUDIO
    TITLE "For the Rain, It Raineth Every Day"
    PERFORMER "Angelika Kirschschlager"
    INDEX 01 27:55:65
  TRACK 16 AUDIO
    TITLE "Frühlingsmorgen"
    PERFORMER "Angelika Kirschschlager"
    INDEX 00 31:05:52
    INDEX 01 31:10:22
  TRACK 17 AUDIO
    TITLE "Erinnerung"
    PERFORMER "Angelika Kirschschlager"
    INDEX 01 33:15:45
  TRACK 18 AUDIO
    TITLE "Hans und Grete"
    PERFORMER "Angelika Kirschschlager"
    INDEX 01 35:36:12
  TRACK 19 AUDIO
    TITLE "Serenade"
    PERFORMER "Angelika Kirschschlager"
    INDEX 01 37:49:35
  TRACK 20 AUDIO
    TITLE "Phantasie"
    PERFORMER "Angelika Kirschschlager"
    INDEX 01 39:24:50
  TRACK 21 AUDIO
    TITLE "Um schlimme Kinder artig zu machen"
    PERFORMER "Angelika Kirschschlager"
    INDEX 01 41:33:62
  TRACK 22 AUDIO
    TITLE "Ich ging mit Lust"
    PERFORMER "Angelika Kirschschlager"
    INDEX 01 43:34:52
  TRACK 23 AUDIO
    TITLE "Aus! Aus!"
    PERFORMER "Angelika Kirschschlager"
    INDEX 01 47:57:70
  TRACK 24 AUDIO
    TITLE "Starke Einbildungskraft"
    PERFORMER "Angelika Kirschschlager"
    INDEX 01 49:59:72
  TRACK 25 AUDIO
    TITLE "Zu Strassburg auf der Schanz'"
    PERFORMER "Angelika Kirschschlager"
    INDEX 01 51:11:37
  TRACK 26 AUDIO
    TITLE "Ablösung im Sommer"
    PERFORMER "Angelika Kirschschlager"
    INDEX 01 54:59:52
  TRACK 27 AUDIO
    TITLE "Scheiden und Meiden"
    PERFORMER "Angelika Kirschschlager"
    INDEX 01 56:40:10
  TRACK 28 AUDIO
    TITLE "Nich widersehen!"
    PERFORMER "Angelika Kirschschlager"
    INDEX 01 59:01:02
  TRACK 29 AUDIO
    TITLE "Selbstgefühl"
    PERFORMER "Angelika Kirschschlager"
    INDEX 01 63:18:57
Код:
AUDIOCHECKER v2.0 beta (build 457) - by Dester - [email protected]
~~~~~~~~~~~~~~~~~~~~~~~~~~~~~~~~~~
-=== DO NOT EDIT THIS FILE! ===-
Path: ...\Korngold, Mahler - Lieder - Kirchschlager
1 -=- Kirchschlager.ape -=- CDDA (43%)
52527188


Скачать торрент 229.65 МБ


Download
Для скачивания .torrent файлов необходима регистрация
Сайт не распространяет и не хранит электронные версии произведений, а лишь предоставляет доступ к создаваемому пользователями каталогу ссылок на торрент-файлы, которые содержат только списки хеш-сумм

Страница 1 из 1

Ответить на тему

   Похожие торренты   Торрент