Регистрация ·  Логин: Пароль: Запомнить   · Забыли пароль?




Ответить на тему
Статистика раздачи
Размер: 174.17 МБ | Зарегистрирован: 10 мар 2018, 13:14 | .torrent скачан: 0 раз(а)
Сидеров: [ 0  | 0 байт/сек ]   Личеров: [ 0  | 0 байт/сек ]   DHT: [ 0 / 0 ]
Автор Сообщение

Модератор
Аватара пользователя

Стаж: 6 лет
Сообщения: 7870
Молдова

Сообщение 10 мар 2018, 13:14 

[Цитировать]

Gustav Mahler - Songs from 'Des Knaben Wunderhorn' - Stephan Genz, Roger Vignoles

Жанр: Classical
Страна-производитель диска: UK
Год издания диска: 2008
Издатель (лейбл): Hyperion
Номер по каталогу: CDA67645
Дата записи: 2007
Аудиокодек: FLAC
Тип рипа: image+.cue
Битрейт аудио: lossless
Продолжительность: 57:12
Источник: собственный рип
Наличие сканов в содержимом раздачи: да
Треклист:
Gustav Mahler (1860-1911)
[1] Revelge
[2] Lob des hohen Verstandes
[3] Rheinlegendchen
[4] Lied des Verfolgten im Turm
[5] Wo die schönen Trompeten blasen
[6] Der Schildwache Nachtlied
[7] Das irdische Leben
[8] Des Antonius von Padua Fischpredigt
[9] Wer hat dies Liedlein erdacht?
[10] Trost im Unglück
[11] Verlorne Müh
[12] Der Tamboursg'sell
[13] Urlicht
Исполнители:
Stephan Genz baritone
Roger Vignoles piano
Код:
Exact Audio Copy V1.0 beta 3 from 29. August 2011
EAC extraction logfile from 23. March 2013, 21:05
Stephan Genz, Roger Vignoles / Mahler - Des Knaben Wunderhorn
Used drive  : HL-DT-STDVDRAM GSA-4083N   Adapter: 1  ID: 0
Read mode               : Secure
Utilize accurate stream : Yes
Defeat audio cache      : Yes
Make use of C2 pointers : No
Read offset correction                      : 667
Overread into Lead-In and Lead-Out          : No
Fill up missing offset samples with silence : Yes
Delete leading and trailing silent blocks   : No
Null samples used in CRC calculations       : Yes
Used interface                              : Native Win32 interface for Win NT & 2000
Used output format              : User Defined Encoder
Selected bitrate                : 896 kBit/s
Quality                         : High
Add ID3 tag                     : No
Command line compressor         : C:\Program Files\Exact Audio Copy\Flac\flac.exe
Additional command line options : -V -8 %source%
TOC of the extracted CD
     Track |   Start  |  Length  | Start sector | End sector
    ---------------------------------------------------------
        1  |  0:00.00 |  6:36.70 |         0    |    29769
        2  |  6:36.70 |  2:49.53 |     29770    |    42497
        3  |  9:26.48 |  3:01.49 |     42498    |    56121
        4  | 12:28.22 |  4:19.40 |     56122    |    75586
        5  | 16:47.62 |  7:13.27 |     75587    |   108088
        6  | 24:01.14 |  5:55.58 |    108089    |   134771
        7  | 29:56.72 |  3:07.46 |    134772    |   148842
        8  | 33:04.43 |  4:27.58 |    148843    |   168925
        9  | 37:32.26 |  2:13.18 |    168926    |   178918
       10  | 39:45.44 |  2:40.12 |    178919    |   190930
       11  | 42:25.56 |  3:06.59 |    190931    |   204939
       12  | 45:32.40 |  6:37.42 |    204940    |   234756
       13  | 52:10.07 |  5:00.34 |    234757    |   257290
Range status and errors
Selected range
     Filename J:\New Music\Mahler - Des Knaben Wunderhorn - Genz\Mahler - Des Knaben Wunderhorn.wav
     Peak level 99.2 %
     Extraction speed 4.2 X
     Range quality 99.9 %
     Test CRC EACBFA46
     Copy CRC EACBFA46
     Copy OK
No errors occurred
End of status report
==== Log checksum B1914AD3477BBD6EA063B973547F9F7F3C9829A4EE5B193F035AE8C6606DC246 ====


Скачать торрент 174.17 МБ


Download
Для скачивания .torrent файлов необходима регистрация
Сайт не распространяет и не хранит электронные версии произведений, а лишь предоставляет доступ к создаваемому пользователями каталогу ссылок на торрент-файлы, которые содержат только списки хеш-сумм

Страница 1 из 1

Ответить на тему

   Похожие торренты   Торрент 




cron