Регистрация ·  Логин: Пароль: Запомнить   · Забыли пароль?




Ответить на тему
Статистика раздачи
Размер: 1.22 ГБ | Зарегистрирован: 10 мар 2018, 13:14 | .torrent скачан: 0 раз(а)
Сидеров: [ 0  | 0 байт/сек ]   Личеров: [ 0  | 0 байт/сек ]   DHT: [ 0 / 0 ]
Автор Сообщение

Модератор
Аватара пользователя

Стаж: 6 лет
Сообщения: 7870
Молдова

Сообщение 10 мар 2018, 13:14 

[Цитировать]

Pfitzner - Complete Lieder - J. Kaufmann, I. Vermillion, Ch. Pregardien, A. Schmidt, R. Holl (5 cd)

Жанр: Lied
Страна-производитель диска: Germany
Год издания диска: 1999
Издатель (лейбл): CPO
Номер по каталогу: 999789-2
Дата записи: 1996-1998
Аудиокодек: FLAC
Тип рипа: image+.cue
Битрейт аудио: lossless
Продолжительность: 5:29:38
Источник: собственный рип
Наличие сканов в содержимом раздачи: да
Треклист:
01. Standchen WoO [02:43]
02. O schneller, mein Ross WoO [02:58]
03. Standchen [WoO 03:43]
04. Lied Werners aus dem 'Trompeter von Sackingen' WoO [05:16]
05. Kuckuckslied WoO [02:30]
06. Ein Fichtenbaum steht einsam WoO [03:10]
07. Mein Liebchen ist WoO [01:54]
08. Die schlanke Wasserlilie WoO [01:54]
09. Abendlied [03:12]
10. Mir bist du tot [02:54]
11. Maturfreiheit [04:36]
12. Nun, da so warm der Sonnenschein [02:08]
13. Das verlassene Magdlein [02:39]
14. Kuriose Geschichte [03:24]
15. In der Fruh op.2, 1 [01:54]
16. Ist der Himmel op.2, 2 [01:34]
17. Kalt und schneidend op.2, 3 [03:07]
18. Im tiefen op.2, 4 [01:34]
19. Ich hor' ein op.2, 5 [02:12]
20. Immer leiser op.2, 6 [04:01]
21. Verrat op.2, 7 [02:36]
22. Warum sind deine op.3, 1 [02:30]
23. Herbstlied op.3, 2 [02:01]
24. Mein Herz ist op.3, 3 [03:38]
01. Es glänzt so schön die sinkende Sonne op.4, 1 [03:26]
02. Sie haben heut abend Gesellschaft op.4, 2 [01:48]
03. Es fällt ein Stern herunter op.4, 3 [03:04]
04. Es fasst mich wieder der alte Mut op.4, 4 [01:22]
05. Frieden op.5, 1 [01:35]
06. Wiegenlied op.5, 2 [03:00]
07. Der Bote op.5, 3 [01:21.10]
08. Zweifelnde Liebe op.6, 1 [02:54]
09. Ich will mich im grünen Wald ergehn op.6, 2 [01:37]
10. Zugvogel op.6, 3 [04:50]
11. Widmung op.6, 4 [01:23]
12. Die Bäume wurden gelb op.6, 5 [02:54]
13. Wasserfahrt op.6, 6 [01:47]
14. Hast Du von den Fischerkindern op.7, 1 [02:59]
15. Nachtwanderer op.7, 2 [01:45]
16. Über ein Stündlein op.7, 3 [02:57]
17. Lockung op.7, 4 [02:11]
18. Wie Frühlingsahnung weht es durch die Lande op.7, 5 [01:22]
19. Der Gärtner op.9, 1 [03:47]
20. Der Einsame op.9, 2 [03:34]
21. Im Herbst op.9, 3 [02:54]
22. Der Kühne op.9, 4 [01:24]
23. Abschied op.9, 5 [03:09]
24. Tiefe Sehnsucht WoO [01:57]
25. Sehnsucht op.10, 1 [03:36]
26. Müde op.10, 2 [02:11]
27. Zum Abschied meiner Tochter op.10, 3 [02:53]
01. Ich und Du op.11, 1 [03:44]
02. Ich aber weiß op.11, 2 [02:36]
03. Studentenfahrt op.11, 3 [02:34]
04. Venus mater op.11, 4 [04:21]
05. Gretel op.11, 5 [02:14]
06. Untreu und Trost WoO [02:42]
07. Leierkastenmann op.15, 1 [05:39]
08. Zorn op.15, 2 [02:54]
09. An die Mark op.15, 3 [04:57]
10. Sonst op.15, 4 [05:44]
11. An den Mond op.18 [07:40]
12. Stimme der Sehnsucht op.19, 1 [02:29]
13. Michaelskirchplatz op.19, 2 [03:55]
14. Herbstbild op.21, 1 [03:36]
15. Die Nachtigallen op.21, 2 [02:43]
01. In Danzig op.22, 1 [05:06]
02. Tragische Geschichte op.22, 2 [02:47]
03. Schon Susche op.22, 3 [06:08]
04. Gegenliebe op.22, 4 [01:58]
05. An die bienen op.22, 5 [02:06]
06. Unter der Linden op.24, 1 [04:02]
07. Gewalt der Minne op.24, 2 [02:16]
08. Zweiundneunzigstes Sonett op.24, 3 [04:25]
09. Abendrot op.24, 4 [03:12]
10. Gebet op.26, 1 [03:04]
11. Nachts op.26, 2 [04:04]
12. Neue Liebe op.26, 3 [02:08]
13. Traurestille op.26, 4 [04:45]
14. Mailied op.26, 5 [02:33]
15. Abbitte op.29, 1 [03:28]
16. Herbsthauch op.29, 2 [02:10]
17. Willkomen und Abschied op.29, 3 [04:37]
18. Die stille Stadt op.29, 4 [02:44]
01. Sehnsucht nach Vergessen op. 30, 1 [02:08]
02. Das verlassene Mägdlein op. 30, 2 [01:58]
03. Denk es, o Seele op. 30, 3 [02:11]
04. Der Arbeitsmann op. 30, 4 [02:55]
05. Hussens Kerker op. 32, 1 [05:52]
06. Säerspruch op. 32, 2 [01:22]
07. Eingelegte Ruder op. 32, 3 [02:54]
08. Lass scharren deiner Rosse Huf op. 32, 4 [01:25]
09. Mir glänzen die Augen op. 33, 1 [01:26]
10. Ich fürcht nit Gespenster op. 33, 2 [01:27]
11. Du milchjunger Knabe op. 33, 3 [01:13]
12. Wandl' ich in dem Morgentau op. 33, 4 [02:22]
13. Singt mein Schatz wie ein Fink op. 33, 5 [01:30]
14. Röschen biss den Apfel an op. 33, 6 [00:44]
15. Tretet ein, hoher Krieger op. 33, 7 [02:57]
16. Wie glänzt der helle Mond so kalt und fern op. 33, 8 [03:44]
17. Bestimmung op. 35, 1 [01:43]
18. Werde nicht an Deinem Herzen satt op. 35, 2 [01:09]
19. Wo hast Du all die Schönheit hergenommen op. 35, 3 [02:24]
20. Schwill an, mein Strom, schwill über deine Weide op. 35, 4 [01:54]
21. Eine Melodie singt mein Herz op. 35, 5 [02:50]
22. Denn unsre Liebe hat zu heiss geflammt op. 35, 6 [01:50]
23. Luchtende Tage op. 40, 1 [01:31]
24. Wenn sich Liebes von dir lösen will op. 40, 2 [02:37]
25. Sehnsucht op. 40, 3 [01:50]
26. Herbstgefühl op. 40, 4 [01:48]
27. Wanderers Nachtlied op. 40, 5 [03:28]
28. Der Weckruf op. 40, 6 [02:10]
29. Auf die Morgenröte op. 41, 1 [04:56]
30. Der verspätete Wanderer op. 41, 2 [03:21]
31. Das Alter op. 41, 3 [04:06]
Исполнители:
Julie Kaufmann, soprano
Iris Vermillion, mezzo-soprano
Christophe Prégardien, tenor
Andreas Schmidt, baritone
Robert Holl, bass
Donald Sulzen, Axel Bauni, Michael Gees & Rudolf Jansen, piano
Код:
Exact Audio Copy V1.0 beta 3 from 29. August 2011
EAC extraction logfile from 12. November 2011, 13:47
Hans Pfitzer / Hans Pfitzer - Lieder Complete Edition Vol.1 [CPO]
Used drive  : TSSTcorpCDDVDW TS-L633L   Adapter: 1  ID: 1
Read mode               : Secure
Utilize accurate stream : Yes
Defeat audio cache      : Yes
Make use of C2 pointers : No
Read offset correction                      : 6
Overread into Lead-In and Lead-Out          : No
Fill up missing offset samples with silence : Yes
Delete leading and trailing silent blocks   : No
Null samples used in CRC calculations       : Yes
Used interface                              : Native Win32 interface for Win NT & 2000
Used output format              : User Defined Encoder
Selected bitrate                : 128 kBit/s
Quality                         : High
Add ID3 tag                     : No
Command line compressor         : C:\Programmi\Exact Audio Copy\Flac\flac.exe
Additional command line options : -V -8 %source%
TOC of the extracted CD
     Track |   Start  |  Length  | Start sector | End sector
    ---------------------------------------------------------
        1  |  0:00.00 |  2:43.40 |         0    |    12264
        2  |  2:43.40 |  2:58.17 |     12265    |    25631
        3  |  5:41.57 |  3:43.48 |     25632    |    42404
        4  |  9:25.30 |  5:16.35 |     42405    |    66139
        5  | 14:41.65 |  2:30.17 |     66140    |    77406
        6  | 17:12.07 |  3:10.18 |     77407    |    91674
        7  | 20:22.25 |  1:54.00 |     91675    |   100224
        8  | 22:16.25 |  1:54.25 |    100225    |   108799
        9  | 24:10.50 |  3:12.32 |    108800    |   123231
       10  | 27:23.07 |  2:54.20 |    123232    |   136301
       11  | 30:17.27 |  4:36.05 |    136302    |   157006
       12  | 34:53.32 |  2:08.73 |    157007    |   166679
       13  | 37:02.30 |  2:39.12 |    166680    |   178616
       14  | 39:41.42 |  3:24.10 |    178617    |   193926
       15  | 43:05.52 |  1:54.25 |    193927    |   202501
       16  | 45:00.02 |  1:34.28 |    202502    |   209579
       17  | 46:34.30 |  3:07.05 |    209580    |   223609
       18  | 49:41.35 |  1:34.37 |    223610    |   230696
       19  | 51:15.72 |  2:12.25 |    230697    |   240621
       20  | 53:28.22 |  4:01.70 |    240622    |   258766
       21  | 57:30.17 |  2:36.68 |    258767    |   270534
       22  | 60:07.10 |  2:30.07 |    270535    |   281791
       23  | 62:37.17 |  2:01.03 |    281792    |   290869
       24  | 64:38.20 |  3:38.60 |    290870    |   307279
Range status and errors
Selected range
     Filename D:\TEMP\Hans Pfitzer - Hans Pfitzer - Lieder Complete Edition Vol.1 [CPO].wav
     Peak level 99.9 %
     Extraction speed 1.3 X
     Range quality 99.7 %
     Copy CRC AE9A78FA
     Copy OK
No errors occurred
AccurateRip summary
Track  1  accurately ripped (confidence 1)  [449BCB1F]  (AR v1)
Track  2  accurately ripped (confidence 1)  [6C7FB561]  (AR v1)
Track  3  accurately ripped (confidence 1)  [A0852808]  (AR v1)
Track  4  accurately ripped (confidence 1)  [22576789]  (AR v1)
Track  5  accurately ripped (confidence 1)  [8E2548EF]  (AR v1)
Track  6  accurately ripped (confidence 1)  [D0B83EEE]  (AR v1)
Track  7  accurately ripped (confidence 1)  [690ABED1]  (AR v1)
Track  8  accurately ripped (confidence 1)  [8F793DAA]  (AR v1)
Track  9  accurately ripped (confidence 1)  [52C89983]  (AR v1)
Track 10  accurately ripped (confidence 1)  [7D952169]  (AR v1)
Track 11  accurately ripped (confidence 1)  [AAAE51A4]  (AR v1)
Track 12  accurately ripped (confidence 1)  [D7AB4AC9]  (AR v1)
Track 13  accurately ripped (confidence 1)  [8362DD41]  (AR v1)
Track 14  accurately ripped (confidence 1)  [504A7003]  (AR v1)
Track 15  accurately ripped (confidence 1)  [60EEFD50]  (AR v1)
Track 16  accurately ripped (confidence 1)  [28C08CF7]  (AR v1)
Track 17  accurately ripped (confidence 1)  [6623B02E]  (AR v1)
Track 18  accurately ripped (confidence 1)  [241B7672]  (AR v1)
Track 19  accurately ripped (confidence 1)  [E0892157]  (AR v1)
Track 20  accurately ripped (confidence 1)  [C37E3B91]  (AR v1)
Track 21  accurately ripped (confidence 1)  [B8E990AA]  (AR v1)
Track 22  accurately ripped (confidence 1)  [4F491E77]  (AR v1)
Track 23  accurately ripped (confidence 1)  [45003DBB]  (AR v1)
Track 24  accurately ripped (confidence 1)  [E15200FA]  (AR v1)
All tracks accurately ripped
End of status report
Код:
Exact Audio Copy V1.0 beta 3 from 29. August 2011
EAC extraction logfile from 12. November 2011, 14:26
Julie Kaufmann, Chr. Pregardien, Andreas Schmidt / Hans Pfitzner --- Lieder 2
Used drive  : TSSTcorpCDDVDW TS-L633L   Adapter: 1  ID: 1
Read mode               : Secure
Utilize accurate stream : Yes
Defeat audio cache      : Yes
Make use of C2 pointers : No
Read offset correction                      : 6
Overread into Lead-In and Lead-Out          : No
Fill up missing offset samples with silence : Yes
Delete leading and trailing silent blocks   : No
Null samples used in CRC calculations       : Yes
Used interface                              : Native Win32 interface for Win NT & 2000
Used output format              : User Defined Encoder
Selected bitrate                : 128 kBit/s
Quality                         : High
Add ID3 tag                     : No
Command line compressor         : C:\Programmi\Exact Audio Copy\Flac\flac.exe
Additional command line options : -V -8 %source%
TOC of the extracted CD
     Track |   Start  |  Length  | Start sector | End sector
    ---------------------------------------------------------
        1  |  0:00.32 |  3:26.50 |        32    |    15531
        2  |  3:27.07 |  1:48.35 |     15532    |    23666
        3  |  5:15.42 |  3:04.28 |     23667    |    37494
        4  |  8:19.70 |  1:22.70 |     37495    |    43714
        5  |  9:42.65 |  1:35.22 |     43715    |    50861
        6  | 11:18.12 |  3:00.48 |     50862    |    64409
        7  | 14:18.60 |  1:21.10 |     64410    |    70494
        8  | 15:39.70 |  2:54.45 |     70495    |    83589
        9  | 18:34.40 |  1:37.20 |     83590    |    90884
       10  | 20:11.60 |  4:50.45 |     90885    |   112679
       11  | 25:02.30 |  1:23.37 |    112680    |   118941
       12  | 26:25.67 |  2:54.70 |    118942    |   132061
       13  | 29:20.62 |  1:47.70 |    132062    |   140156
       14  | 31:08.57 |  2:59.23 |    140157    |   153604
       15  | 34:08.05 |  1:45.20 |    153605    |   161499
       16  | 35:53.25 |  2:56.17 |    161500    |   174716
       17  | 38:49.42 |  2:11.08 |    174717    |   184549
       18  | 41:00.50 |  1:22.12 |    184550    |   190711
       19  | 42:22.62 |  3:47.38 |    190712    |   207774
       20  | 46:10.25 |  3:34.07 |    207775    |   223831
       21  | 49:44.32 |  2:54.35 |    223832    |   236916
       22  | 52:38.67 |  1:24.55 |    236917    |   243271
       23  | 54:03.47 |  3:09.53 |    243272    |   257499
       24  | 57:13.25 |  1:57.12 |    257500    |   266286
       25  | 59:10.37 |  3:36.15 |    266287    |   282501
       26  | 62:46.52 |  2:11.18 |    282502    |   292344
       27  | 64:57.70 |  2:53.12 |    292345    |   305331
Range status and errors
Selected range
     Filename D:\TEMP\CD2\Julie Kaufmann, Chr. Pregardien, Andreas Schmidt - Hans Pfitzner --- Lieder 2.wav
     Peak level 99.0 %
     Extraction speed 4.1 X
     Range quality 100.0 %
     Copy CRC 5022A2B8
     Copy OK
No errors occurred
AccurateRip summary
Track  1  accurately ripped (confidence 2)  [AD27114C]  (AR v1)
Track  2  accurately ripped (confidence 2)  [CBCCD832]  (AR v1)
Track  3  accurately ripped (confidence 2)  [21ECA719]  (AR v1)
Track  4  accurately ripped (confidence 2)  [D03804EE]  (AR v1)
Track  5  accurately ripped (confidence 2)  [4421BFE0]  (AR v1)
Track  6  accurately ripped (confidence 2)  [FDA2362E]  (AR v1)
Track  7  accurately ripped (confidence 2)  [B86A4B2C]  (AR v1)
Track  8  accurately ripped (confidence 2)  [FF983C0A]  (AR v1)
Track  9  accurately ripped (confidence 2)  [6B16E3E5]  (AR v1)
Track 10  accurately ripped (confidence 2)  [FA3775C5]  (AR v1)
Track 11  accurately ripped (confidence 2)  [EDBC3B3C]  (AR v1)
Track 12  accurately ripped (confidence 2)  [AE218B61]  (AR v1)
Track 13  accurately ripped (confidence 2)  [34578B70]  (AR v1)
Track 14  accurately ripped (confidence 2)  [F21311AA]  (AR v1)
Track 15  accurately ripped (confidence 2)  [EF26A285]  (AR v1)
Track 16  accurately ripped (confidence 2)  [8DA2022F]  (AR v1)
Track 17  accurately ripped (confidence 2)  [813556E2]  (AR v1)
Track 18  accurately ripped (confidence 2)  [1AC9FA13]  (AR v1)
Track 19  accurately ripped (confidence 2)  [BC0C8A94]  (AR v1)
Track 20  accurately ripped (confidence 2)  [07BE2836]  (AR v1)
Track 21  accurately ripped (confidence 2)  [D63CE58E]  (AR v1)
Track 22  accurately ripped (confidence 2)  [C6309386]  (AR v1)
Track 23  accurately ripped (confidence 2)  [4CB1629E]  (AR v1)
Track 24  accurately ripped (confidence 2)  [1C6D0ADB]  (AR v1)
Track 25  accurately ripped (confidence 2)  [A39CACCD]  (AR v1)
Track 26  accurately ripped (confidence 2)  [581926A9]  (AR v1)
Track 27  accurately ripped (confidence 2)  [12E3F459]  (AR v1)
All tracks accurately ripped
End of status report
Код:
Exact Audio Copy V1.0 beta 3 from 29. August 2011
EAC extraction logfile from 12. November 2011, 14:50
Hans Pfitzner / Lieder Vol. 3
Used drive  : TSSTcorpCDDVDW TS-L633L   Adapter: 1  ID: 1
Read mode               : Secure
Utilize accurate stream : Yes
Defeat audio cache      : Yes
Make use of C2 pointers : No
Read offset correction                      : 6
Overread into Lead-In and Lead-Out          : No
Fill up missing offset samples with silence : Yes
Delete leading and trailing silent blocks   : No
Null samples used in CRC calculations       : Yes
Used interface                              : Native Win32 interface for Win NT & 2000
Used output format              : User Defined Encoder
Selected bitrate                : 128 kBit/s
Quality                         : High
Add ID3 tag                     : No
Command line compressor         : C:\Programmi\Exact Audio Copy\Flac\flac.exe
Additional command line options : -V -8 %source%
TOC of the extracted CD
     Track |   Start  |  Length  | Start sector | End sector
    ---------------------------------------------------------
        1  |  0:00.32 |  3:44.63 |        32    |    16894
        2  |  3:45.20 |  2:36.62 |     16895    |    28656
        3  |  6:22.07 |  2:34.48 |     28657    |    40254
        4  |  8:56.55 |  4:21.67 |     40255    |    59896
        5  | 13:18.47 |  2:14.48 |     59897    |    69994
        6  | 15:33.20 |  2:42.22 |     69995    |    82166
        7  | 18:15.42 |  5:39.35 |     82167    |   107626
        8  | 23:55.02 |  2:54.25 |    107627    |   120701
        9  | 26:49.27 |  4:57.55 |    120702    |   143031
       10  | 31:47.07 |  5:44.55 |    143032    |   168886
       11  | 37:31.62 |  7:40.30 |    168887    |   203416
       12  | 45:12.17 |  2:29.30 |    203417    |   214621
       13  | 47:41.47 |  3:55.35 |    214622    |   232281
       14  | 51:37.07 |  3:36.38 |    232282    |   248519
       15  | 55:13.45 |  2:43.42 |    248520    |   260786
Range status and errors
Selected range
     Filename D:\TEMP\CD3\Hans Pfitzner - Lieder Vol. 3.wav
     Peak level 95.1 %
     Extraction speed 3.8 X
     Range quality 100.0 %
     Copy CRC C6ECDE56
     Copy OK
No errors occurred
AccurateRip summary
Track  1  accurately ripped (confidence 2)  [8DCE22D1]  (AR v1)
Track  2  accurately ripped (confidence 2)  [7A60EDD1]  (AR v1)
Track  3  accurately ripped (confidence 2)  [6C703836]  (AR v1)
Track  4  accurately ripped (confidence 2)  [CB6B74A1]  (AR v1)
Track  5  accurately ripped (confidence 2)  [CA193125]  (AR v1)
Track  6  accurately ripped (confidence 2)  [9748650E]  (AR v1)
Track  7  accurately ripped (confidence 2)  [EC179F92]  (AR v1)
Track  8  accurately ripped (confidence 2)  [27956204]  (AR v1)
Track  9  accurately ripped (confidence 2)  [493A367F]  (AR v1)
Track 10  accurately ripped (confidence 2)  [1FABD4A0]  (AR v1)
Track 11  accurately ripped (confidence 2)  [2C7BFAE0]  (AR v1)
Track 12  accurately ripped (confidence 2)  [F40040CA]  (AR v1)
Track 13  accurately ripped (confidence 2)  [E5D48B1B]  (AR v1)
Track 14  accurately ripped (confidence 2)  [9571CEFF]  (AR v1)
Track 15  accurately ripped (confidence 2)  [7B4EC1C0]  (AR v1)
All tracks accurately ripped
End of status report
Код:
Exact Audio Copy V1.0 beta 3 from 29. August 2011
EAC extraction logfile from 12. November 2011, 15:48
Hans Pfitzner / Hans Pfitzer - Lieder Complete Edition Vol.4 [CPO]
Used drive  : TSSTcorpCDDVDW TS-L633L   Adapter: 1  ID: 1
Read mode               : Secure
Utilize accurate stream : Yes
Defeat audio cache      : Yes
Make use of C2 pointers : No
Read offset correction                      : 6
Overread into Lead-In and Lead-Out          : No
Fill up missing offset samples with silence : Yes
Delete leading and trailing silent blocks   : No
Null samples used in CRC calculations       : Yes
Used interface                              : Native Win32 interface for Win NT & 2000
Used output format              : User Defined Encoder
Selected bitrate                : 128 kBit/s
Quality                         : High
Add ID3 tag                     : No
Command line compressor         : C:\Programmi\Exact Audio Copy\Flac\flac.exe
Additional command line options : -V -8 %source%
TOC of the extracted CD
     Track |   Start  |  Length  | Start sector | End sector
    ---------------------------------------------------------
        1  |  0:00.00 |  5:06.57 |         0    |    23006
        2  |  5:06.57 |  2:47.40 |     23007    |    35571
        3  |  7:54.22 |  6:08.43 |     35572    |    63214
        4  | 14:02.65 |  1:58.52 |     63215    |    72116
        5  | 16:01.42 |  2:06.43 |     72117    |    81609
        6  | 18:08.10 |  4:02.30 |     81610    |    99789
        7  | 22:10.40 |  2:16.65 |     99790    |   110054
        8  | 24:27.30 |  4:25.15 |    110055    |   129944
        9  | 28:52.45 |  3:12.52 |    129945    |   144396
       10  | 32:05.22 |  3:04.43 |    144397    |   158239
       11  | 35:09.65 |  4:04.62 |    158240    |   176601
       12  | 39:14.52 |  2:08.23 |    176602    |   186224
       13  | 41:23.00 |  4:45.17 |    186225    |   207616
       14  | 46:08.17 |  2:33.15 |    207617    |   219106
       15  | 48:41.32 |  3:28.40 |    219107    |   234746
       16  | 52:09.72 |  2:10.10 |    234747    |   244506
       17  | 54:20.07 |  4:32.35 |    244507    |   264941
       18  | 58:52.42 |  2:44.73 |    264942    |   277314
Range status and errors
Selected range
     Filename D:\TEMP\Pfitzner - Lieder [CPO, 5 cd]\CD4\Hans Pfitzner - Hans Pfitzer - Lieder Complete Edition Vol.4 [CPO].wav
     Peak level 97.7 %
     Extraction speed 1.3 X
     Range quality 100.0 %
     Copy CRC 1626CFDC
     Copy OK
No errors occurred
AccurateRip summary
Track  1  accurately ripped (confidence 1)  [CE1A377C]  (AR v1)
Track  2  accurately ripped (confidence 1)  [090FB32A]  (AR v1)
Track  3  accurately ripped (confidence 1)  [9D487FF2]  (AR v1)
Track  4  accurately ripped (confidence 1)  [8017B952]  (AR v1)
Track  5  accurately ripped (confidence 1)  [71F3AF9C]  (AR v1)
Track  6  accurately ripped (confidence 1)  [2D2220DD]  (AR v1)
Track  7  accurately ripped (confidence 1)  [A18EF59E]  (AR v1)
Track  8  accurately ripped (confidence 1)  [4BAA0E6C]  (AR v1)
Track  9  accurately ripped (confidence 1)  [909EFD0F]  (AR v1)
Track 10  accurately ripped (confidence 1)  [C3218B4D]  (AR v1)
Track 11  accurately ripped (confidence 1)  [E9C9C956]  (AR v1)
Track 12  accurately ripped (confidence 1)  [BD769D00]  (AR v1)
Track 13  accurately ripped (confidence 1)  [115C0292]  (AR v1)
Track 14  accurately ripped (confidence 1)  [DE83832A]  (AR v1)
Track 15  accurately ripped (confidence 1)  [BEE6C61C]  (AR v1)
Track 16  accurately ripped (confidence 1)  [53AF723F]  (AR v1)
Track 17  accurately ripped (confidence 1)  [CB91650B]  (AR v1)
Track 18  accurately ripped (confidence 1)  [5E2E01B8]  (AR v1)
All tracks accurately ripped
End of status report
Код:
Exact Audio Copy V1.0 beta 3 from 29. August 2011
EAC extraction logfile from 12. November 2011, 16:28
Various / Pfitzner --- Lieder 5
Used drive  : TSSTcorpCDDVDW TS-L633L   Adapter: 1  ID: 1
Read mode               : Secure
Utilize accurate stream : Yes
Defeat audio cache      : Yes
Make use of C2 pointers : No
Read offset correction                      : 6
Overread into Lead-In and Lead-Out          : No
Fill up missing offset samples with silence : Yes
Delete leading and trailing silent blocks   : No
Null samples used in CRC calculations       : Yes
Used interface                              : Native Win32 interface for Win NT & 2000
Used output format              : User Defined Encoder
Selected bitrate                : 128 kBit/s
Quality                         : High
Add ID3 tag                     : No
Command line compressor         : C:\Programmi\Exact Audio Copy\Flac\flac.exe
Additional command line options : -V -8 %source%
TOC of the extracted CD
     Track |   Start  |  Length  | Start sector | End sector
    ---------------------------------------------------------
        1  |  0:00.32 |  2:08.03 |        32    |     9634
        2  |  2:08.35 |  1:58.40 |      9635    |    18524
        3  |  4:07.00 |  2:11.37 |     18525    |    28386
        4  |  6:18.37 |  2:55.73 |     28387    |    41584
        5  |  9:14.35 |  5:52.27 |     41585    |    68011
        6  | 15:06.62 |  1:22.30 |     68012    |    74191
        7  | 16:29.17 |  2:54.10 |     74192    |    87251
        8  | 19:23.27 |  1:25.35 |     87252    |    93661
        9  | 20:48.62 |  1:26.60 |     93662    |   100171
       10  | 22:15.47 |  1:27.08 |    100172    |   106704
       11  | 23:42.55 |  1:13.22 |    106705    |   112201
       12  | 24:56.02 |  2:22.20 |    112202    |   122871
       13  | 27:18.22 |  1:30.25 |    122872    |   129646
       14  | 28:48.47 |  0:44.10 |    129647    |   132956
       15  | 29:32.57 |  2:57.08 |    132957    |   146239
       16  | 32:29.65 |  3:44.00 |    146240    |   163039
       17  | 36:13.65 |  1:43.12 |    163040    |   170776
       18  | 37:57.02 |  1:09.28 |    170777    |   175979
       19  | 39:06.30 |  2:24.57 |    175980    |   186836
       20  | 41:31.12 |  1:54.03 |    186837    |   195389
       21  | 43:25.15 |  2:50.35 |    195390    |   208174
       22  | 46:15.50 |  1:50.25 |    208175    |   216449
       23  | 48:06.00 |  1:31.32 |    216450    |   223306
       24  | 49:37.32 |  2:37.55 |    223307    |   235136
       25  | 52:15.12 |  1:50.13 |    235137    |   243399
       26  | 54:05.25 |  1:48.35 |    243400    |   251534
       27  | 55:53.60 |  3:28.15 |    251535    |   267149
       28  | 59:22.00 |  2:10.12 |    267150    |   276911
       29  | 61:32.12 |  4:56.40 |    276912    |   299151
       30  | 66:28.52 |  3:21.08 |    299152    |   314234
       31  | 69:49.60 |  4:06.00 |    314235    |   332684
Range status and errors
Selected range
     Filename D:\TEMP\Pfitzner - Lieder [CPO, 5 cd]\CD5\Various - Pfitzner --- Lieder 5.wav
     Peak level 99.9 %
     Extraction speed 4.2 X
     Range quality 100.0 %
     Copy CRC 808C5BDA
     Copy OK
No errors occurred
AccurateRip summary
Track  1  not present in database
Track  2  not present in database
Track  3  not present in database
Track  4  not present in database
Track  5  not present in database
Track  6  not present in database
Track  7  not present in database
Track  8  not present in database
Track  9  not present in database
Track 10  not present in database
Track 11  not present in database
Track 12  not present in database
Track 13  not present in database
Track 14  not present in database
Track 15  not present in database
Track 16  not present in database
Track 17  not present in database
Track 18  not present in database
Track 19  not present in database
Track 20  not present in database
Track 21  not present in database
Track 22  not present in database
Track 23  not present in database
Track 24  not present in database
Track 25  not present in database
Track 26  not present in database
Track 27  not present in database
Track 28  not present in database
Track 29  not present in database
Track 30  not present in database
Track 31  not present in database
None of the tracks are present in the AccurateRip database
End of status report


Скачать торрент 1.22 ГБ


Download
Для скачивания .torrent файлов необходима регистрация
Сайт не распространяет и не хранит электронные версии произведений, а лишь предоставляет доступ к создаваемому пользователями каталогу ссылок на торрент-файлы, которые содержат только списки хеш-сумм

Страница 1 из 1

Ответить на тему

   Похожие торренты   Торрент 




cron