Регистрация ·  Логин: Пароль: Запомнить   · Забыли пароль?




Ответить на тему
Статистика раздачи
Размер: 408.07 МБ | Зарегистрирован: 10 мар 2018, 13:15 | .torrent скачан: 0 раз(а)
Сидеров: [ 1  | 0 байт/сек ]   Личеров: [ 0  | 0 байт/сек ]   DHT: [ 1 / 0 ]
Автор Сообщение

Модератор
Аватара пользователя

Стаж: 6 лет
Сообщения: 7870
Молдова

Сообщение 10 мар 2018, 13:15 

[Цитировать]

Zemlinsky - Lieder - Bonney, Von Otter, Blochwitz, Schmidt, Garben (2 cd)

Жанр: Lied
Страна-производитель диска: Germany
Год издания диска: 1989
Издатель (лейбл): Deutsche Grammophon
Номер по каталогу: 427348
Дата записи: 1989
Аудиокодек: FLAC
Тип рипа: image+.cue
Битрейт аудио: lossless
Продолжительность: 02:20:14
Источник: собственный рип
Наличие сканов в содержимом раздачи: нет
Код:
[01]-[11] Lieder op. 2
[12]-[19] Gesange op. 5
[20]-[25] Walzer-Gesange nach toskanischen Volksliedern op. 6
[26]-[30] Irmelin Rose und andere Gesange op. 7
[31]-[34] Turmwachterlied und andere Gesange op. 8
Код:
[01]-[06] Ehetanzlied und andere Gesange op. 10
[07] Schlummerlied WoO
[08]-[13] Sechs Gesange op. 13
[14]-[20] Sechs Lieder op. 22
[21] Ahnung Beatricens WoO
[22]-[33] Zwolf Lieder op. 27
Исполнители:
B. Bonney, S; A. S. Von Otter, MS; H. P. Blochwitz, T; A. Schmidt, B
C. Garben, piano
Код:
Exact Audio Copy V1.0 beta 3 from 29. August 2011
EAC extraction logfile from 22. January 2012, 13:03
Zemlinsky / Lieder CD1
Used drive  : hp      CDDVDW TS-L633N   Adapter: 0  ID: 1
Read mode               : Secure
Utilize accurate stream : Yes
Defeat audio cache      : Yes
Make use of C2 pointers : No
Read offset correction                      : 6
Overread into Lead-In and Lead-Out          : No
Fill up missing offset samples with silence : Yes
Delete leading and trailing silent blocks   : No
Null samples used in CRC calculations       : Yes
Used interface                              : Native Win32 interface for Win NT & 2000
Used output format              : User Defined Encoder
Selected bitrate                : 128 kBit/s
Quality                         : High
Add ID3 tag                     : No
Command line compressor         : C:\Program Files\Exact Audio Copy\Flac\flac.exe
Additional command line options : -8 -V -T "ARTIST=%artist%" -T "TITLE=%title%" -T "ALBUM=%albumtitle%" -T "DATE=%year%" -T "TRACKNUMBER=%tracknr%" -T "GENRE=%genre%" -T "PERFORMER=%albuminterpret%" -T "COMPOSER=%composer%" %haslyrics%--tag-from-file=LYRICS="%lyricsfile%"%haslyrics% -T "ALBUMARTIST=%albumartist%" -T "DISCNUMBER=%cdnumber%" -T "TOTALDISCS=%totalcds%" -T "TOTALTRACKS=%numtracks%" -T "COMMENT=%comment%" %source% -o %dest%
TOC of the extracted CD
     Track |   Start  |  Length  | Start sector | End sector
    ---------------------------------------------------------
        1  |  0:00.33 |  2:41.52 |        33    |    12159
        2  |  2:42.10 |  1:24.73 |     12160    |    18532
        3  |  4:07.08 |  1:21.15 |     18533    |    24622
        4  |  5:28.23 |  3:39.72 |     24623    |    41119
        5  |  9:08.20 |  1:41.00 |     41120    |    48694
        6  | 10:49.20 |  1:16.28 |     48695    |    54422
        7  | 12:05.48 |  1:45.50 |     54423    |    62347
        8  | 13:51.23 |  1:36.50 |     62348    |    69597
        9  | 15:27.73 |  1:07.65 |     69598    |    74687
       10  | 16:35.63 |  2:05.37 |     74688    |    84099
       11  | 18:41.25 |  2:44.25 |     84100    |    96424
       12  | 21:25.50 |  2:24.43 |     96425    |   107267
       13  | 23:50.18 |  1:10.37 |    107268    |   112554
       14  | 25:00.55 |  2:48.10 |    112555    |   125164
       15  | 27:48.65 |  1:16.15 |    125165    |   130879
       16  | 29:05.05 |  2:14.55 |    130880    |   140984
       17  | 31:19.60 |  0:47.13 |    140985    |   144522
       18  | 32:06.73 |  1:56.15 |    144523    |   153237
       19  | 34:03.13 |  1:17.45 |    153238    |   159057
       20  | 35:20.58 |  1:37.17 |    159058    |   166349
       21  | 36:58.00 |  1:28.73 |    166350    |   173022
       22  | 38:26.73 |  1:00.50 |    173023    |   177572
       23  | 39:27.48 |  0:54.17 |    177573    |   181639
       24  | 40:21.65 |  1:47.55 |    181640    |   189719
       25  | 42:09.45 |  1:02.03 |    189720    |   194372
       26  | 43:11.48 |  1:31.05 |    194373    |   201202
       27  | 44:42.53 |  2:30.07 |    201203    |   212459
       28  | 47:12.60 |  2:50.43 |    212460    |   225252
       29  | 50:03.28 |  3:09.55 |    225253    |   239482
       30  | 53:13.08 |  1:08.25 |    239483    |   244607
       31  | 54:21.33 |  7:26.00 |    244608    |   278057
       32  | 61:47.33 |  4:24.27 |    278058    |   297884
       33  | 66:11.60 |  2:33.53 |    297885    |   309412
       34  | 68:45.38 |  4:10.57 |    309413    |   328219
Range status and errors
Selected range
     Filename C:\Users\Francesco Bueno\Desktop\Music\A\zemlinsky\CD 1\Zemlinsky - Lieder CD1.wav
     Peak level 82.6 %
     Extraction speed 2.2 X
     Range quality 100.0 %
     Copy CRC 93CAB378
     Copy OK
No errors occurred
AccurateRip summary
Track  1  accurately ripped (confidence 4)  [E016111F]  (AR v1)
Track  2  accurately ripped (confidence 4)  [48B8A488]  (AR v1)
Track  3  accurately ripped (confidence 3)  [49CBD15A]  (AR v1)
Track  4  accurately ripped (confidence 4)  [05A8DB96]  (AR v1)
Track  5  accurately ripped (confidence 4)  [AE9564C2]  (AR v1)
Track  6  accurately ripped (confidence 4)  [E46285F9]  (AR v1)
Track  7  accurately ripped (confidence 4)  [A344FEBB]  (AR v1)
Track  8  accurately ripped (confidence 3)  [0BED184F]  (AR v1)
Track  9  accurately ripped (confidence 4)  [7BBD6C65]  (AR v1)
Track 10  accurately ripped (confidence 4)  [F28E6926]  (AR v1)
Track 11  accurately ripped (confidence 4)  [ADD18776]  (AR v1)
Track 12  accurately ripped (confidence 4)  [96146179]  (AR v1)
Track 13  accurately ripped (confidence 4)  [4698D01D]  (AR v1)
Track 14  accurately ripped (confidence 4)  [F63C0F71]  (AR v1)
Track 15  accurately ripped (confidence 4)  [5B083F48]  (AR v1)
Track 16  accurately ripped (confidence 4)  [0420F743]  (AR v1)
Track 17  accurately ripped (confidence 4)  [3192AF40]  (AR v1)
Track 18  accurately ripped (confidence 4)  [7F734B14]  (AR v1)
Track 19  accurately ripped (confidence 4)  [03C38E3D]  (AR v1)
Track 20  accurately ripped (confidence 4)  [8792911B]  (AR v1)
Track 21  accurately ripped (confidence 4)  [DEBE433B]  (AR v1)
Track 22  accurately ripped (confidence 4)  [17DD8DE1]  (AR v1)
Track 23  accurately ripped (confidence 4)  [56D3A83D]  (AR v1)
Track 24  accurately ripped (confidence 4)  [CC7AE5FA]  (AR v1)
Track 25  accurately ripped (confidence 4)  [CD28939F]  (AR v1)
Track 26  accurately ripped (confidence 4)  [2CD8923F]  (AR v1)
Track 27  accurately ripped (confidence 4)  [B5C2BC1F]  (AR v1)
Track 28  accurately ripped (confidence 3)  [ED068E4F]  (AR v1)
Track 29  accurately ripped (confidence 3)  [6528D0B1]  (AR v1)
Track 30  accurately ripped (confidence 4)  [DE77E9BA]  (AR v1)
Track 31  accurately ripped (confidence 3)  [1EC2F55E]  (AR v1)
Track 32  accurately ripped (confidence 4)  [9A11D9E8]  (AR v1)
Track 33  accurately ripped (confidence 4)  [43CA0101]  (AR v1)
Track 34  accurately ripped (confidence 4)  [6E7D2A6C]  (AR v1)
All tracks accurately ripped
End of status report
Код:
Exact Audio Copy V1.0 beta 3 from 29. August 2011
EAC extraction logfile from 22. January 2012, 13:56
Zemlinsky / Lieder CD 2
Used drive  : hp      CDDVDW TS-L633N   Adapter: 0  ID: 1
Read mode               : Secure
Utilize accurate stream : Yes
Defeat audio cache      : Yes
Make use of C2 pointers : No
Read offset correction                      : 6
Overread into Lead-In and Lead-Out          : No
Fill up missing offset samples with silence : Yes
Delete leading and trailing silent blocks   : No
Null samples used in CRC calculations       : Yes
Used interface                              : Native Win32 interface for Win NT & 2000
Used output format              : User Defined Encoder
Selected bitrate                : 128 kBit/s
Quality                         : High
Add ID3 tag                     : No
Command line compressor         : C:\Program Files\Exact Audio Copy\Flac\flac.exe
Additional command line options : -8 -V -T "ARTIST=%artist%" -T "TITLE=%title%" -T "ALBUM=%albumtitle%" -T "DATE=%year%" -T "TRACKNUMBER=%tracknr%" -T "GENRE=%genre%" -T "PERFORMER=%albuminterpret%" -T "COMPOSER=%composer%" %haslyrics%--tag-from-file=LYRICS="%lyricsfile%"%haslyrics% -T "ALBUMARTIST=%albumartist%" -T "DISCNUMBER=%cdnumber%" -T "TOTALDISCS=%totalcds%" -T "TOTALTRACKS=%numtracks%" -T "COMMENT=%comment%" %source% -o %dest%
TOC of the extracted CD
     Track |   Start  |  Length  | Start sector | End sector
    ---------------------------------------------------------
        1  |  0:00.33 |  2:28.70 |        33    |    11202
        2  |  2:29.28 |  2:17.32 |     11203    |    21509
        3  |  4:46.60 |  2:29.70 |     21510    |    32754
        4  |  7:16.55 |  1:21.43 |     32755    |    38872
        5  |  8:38.23 |  1:58.02 |     38873    |    47724
        6  | 10:36.25 |  3:22.43 |     47725    |    62917
        7  | 13:58.68 |  1:56.40 |     62918    |    71657
        8  | 15:55.33 |  3:14.00 |     71658    |    86207
        9  | 19:09.33 |  2:19.20 |     86208    |    96652
       10  | 21:28.53 |  1:49.50 |     96653    |   104877
       11  | 23:18.28 |  2:02.72 |    104878    |   114099
       12  | 25:21.25 |  2:57.03 |    114100    |   127377
       13  | 28:18.28 |  4:09.22 |    127378    |   146074
       14  | 32:27.50 |  1:49.10 |    146075    |   154259
       15  | 34:16.60 |  2:12.45 |    154260    |   164204
       16  | 36:29.30 |  0:36.43 |    164205    |   166947
       17  | 37:05.73 |  1:11.45 |    166948    |   172317
       18  | 38:17.43 |  2:16.67 |    172318    |   182584
       19  | 40:34.35 |  1:06.03 |    182585    |   187537
       20  | 41:40.38 |  2:57.70 |    187538    |   200882
       21  | 44:38.33 |  3:47.12 |    200883    |   217919
       22  | 48:25.45 |  2:32.03 |    217920    |   229322
       23  | 50:57.48 |  1:14.45 |    229323    |   234917
       24  | 52:12.18 |  0:54.15 |    234918    |   238982
       25  | 53:06.33 |  1:00.67 |    238983    |   243549
       26  | 54:07.25 |  2:03.63 |    243550    |   252837
       27  | 56:11.13 |  1:06.50 |    252838    |   257837
       28  | 57:17.63 |  2:21.00 |    257838    |   268412
       29  | 59:38.63 |  1:53.57 |    268413    |   276944
       30  | 61:32.45 |  0:54.45 |    276945    |   281039
       31  | 62:27.15 |  2:20.50 |    281040    |   291589
       32  | 64:47.65 |  0:43.55 |    291590    |   294869
       33  | 65:31.45 |  1:46.63 |    294870    |   302882
Range status and errors
Selected range
     Filename C:\Users\Francesco Bueno\Desktop\Music\A\zemlinsky\CD 2\Zemlinsky - Lieder CD 2.wav
     Peak level 96.3 %
     Extraction speed 2.2 X
     Range quality 99.9 %
     Copy CRC 9EBD3BD9
     Copy OK
No errors occurred
AccurateRip summary
Track  1  accurately ripped (confidence 4)  [97350FE5]  (AR v1)
Track  2  accurately ripped (confidence 3)  [79224F31]  (AR v1)
Track  3  accurately ripped (confidence 3)  [1002F9F7]  (AR v1)
Track  4  accurately ripped (confidence 4)  [3F31E1BF]  (AR v1)
Track  5  accurately ripped (confidence 4)  [E6D8B8B4]  (AR v1)
Track  6  accurately ripped (confidence 4)  [5137CE1E]  (AR v1)
Track  7  accurately ripped (confidence 4)  [7E51C2A3]  (AR v1)
Track  8  accurately ripped (confidence 4)  [D8220D87]  (AR v1)
Track  9  accurately ripped (confidence 4)  [0FB5F5F5]  (AR v1)
Track 10  accurately ripped (confidence 4)  [C53E46DE]  (AR v1)
Track 11  accurately ripped (confidence 4)  [28E05B69]  (AR v1)
Track 12  accurately ripped (confidence 4)  [2D4123A0]  (AR v1)
Track 13  accurately ripped (confidence 4)  [686213A3]  (AR v1)
Track 14  accurately ripped (confidence 4)  [3C1165F1]  (AR v1)
Track 15  accurately ripped (confidence 4)  [90441780]  (AR v1)
Track 16  accurately ripped (confidence 4)  [EB966D08]  (AR v1)
Track 17  accurately ripped (confidence 4)  [E37D2175]  (AR v1)
Track 18  accurately ripped (confidence 4)  [395B0975]  (AR v1)
Track 19  accurately ripped (confidence 4)  [843A9173]  (AR v1)
Track 20  accurately ripped (confidence 4)  [1EA00411]  (AR v1)
Track 21  accurately ripped (confidence 4)  [4A0B72EA]  (AR v1)
Track 22  accurately ripped (confidence 3)  [45479711]  (AR v1)
Track 23  accurately ripped (confidence 4)  [E5A5E022]  (AR v1)
Track 24  accurately ripped (confidence 4)  [2ED184DB]  (AR v1)
Track 25  accurately ripped (confidence 4)  [8A0CAC6F]  (AR v1)
Track 26  accurately ripped (confidence 4)  [B2103EEF]  (AR v1)
Track 27  accurately ripped (confidence 4)  [F07FF698]  (AR v1)
Track 28  accurately ripped (confidence 4)  [562A87EA]  (AR v1)
Track 29  accurately ripped (confidence 4)  [D0382D06]  (AR v1)
Track 30  accurately ripped (confidence 4)  [C44D8F03]  (AR v1)
Track 31  accurately ripped (confidence 3)  [7D380DC5]  (AR v1)
Track 32  accurately ripped (confidence 4)  [7292D5AE]  (AR v1)
Track 33  accurately ripped (confidence 4)  [950E000C]  (AR v1)
All tracks accurately ripped
End of status report


Скачать торрент 408.07 МБ


Download
Для скачивания .torrent файлов необходима регистрация
Сайт не распространяет и не хранит электронные версии произведений, а лишь предоставляет доступ к создаваемому пользователями каталогу ссылок на торрент-файлы, которые содержат только списки хеш-сумм

Страница 1 из 1

Ответить на тему

   Похожие торренты   Торрент 




cron