Регистрация ·  Логин: Пароль: Запомнить   · Забыли пароль?




Ответить на тему
Статистика раздачи
Размер: 291.62 МБ | Зарегистрирован: 10 мар 2018, 13:15 | .torrent скачан: 0 раз(а)
Сидеров: [ 0  | 0 байт/сек ]   Личеров: [ 0  | 0 байт/сек ]   DHT: [ 0 / 0 ]
Автор Сообщение

Модератор
Аватара пользователя

Стаж: 6 лет
Сообщения: 7870
Молдова

Сообщение 10 мар 2018, 13:15 

[Цитировать]

Monteverdi Series: Vol.3 - Sweet Torment - I Fagiolini, Barokksolistene, Robert Hollingworth

Жанр: Classical, madrigal
Страна-производитель диска: UK
Год издания диска: 2009
Издатель (лейбл): Chandos Records
Номер по каталогу: CHAN 0760
Дата записи: 2009
Аудиокодек: FLAC
Тип рипа: image+.cue
Битрейт аудио: lossless
Продолжительность: 79:02
Источник: собственный рип
Наличие сканов в содержимом раздачи: да
Треклист:
Claudio Monteverdi (1567–1643)
[1] Questi vaghi concenti 7:06
from Il quinto libro de madrigali (1605)
[2] T’amo, mia vita! 2:53
from Il quinto libro de madrigali (1605)
[3] Ohimè il bel viso 4:51
from Il sesto libro de madrigali (1614)
[4] Zefiro torna, e ’l bel tempo rimena 3:29
from Il sesto libro de madrigali (1614)
[5] Zefiro torna, e di soavi accenti 6:13
from Scherzi musicali cioè arie, & madrigali in stil recitativo… (1632)
[6] Ohimè, dov’è il mio ben? 4:44
from Concerto. Settimo libro de madrigali (1619)
[7] Si dolce è ’l tormento 4:27
from Carlo Milanuzzi: Quarto scherzo delle ariose vaghezze… (1624)
[8] Or che ’l ciel e la terra 7:25
from Madrigali guerrieri, et amorosi… Libro ottavo (1638)
[9] Gira il nemico insidioso 5:42
from Madrigali guerrieri, et amorosi… Libro ottavo (1638)
[10] Ballo delle Ingrate 32:04
from Madrigali guerrieri, et amorosi… Libro ottavo (1638)
Исполнители:
I Fagiolini
Barokksolistene
Robert Hollingworth
director
Код:
Exact Audio Copy V1.0 beta 3 from 29. August 2011
EAC extraction logfile from 11. August 2012, 17:13
I Fagiolini, Robert Hollingworth / Monteverdi - Sweet Torment
Used drive  : HL-DT-STDVDRAM GSA-4083N   Adapter: 1  ID: 0
Read mode               : Secure
Utilize accurate stream : Yes
Defeat audio cache      : Yes
Make use of C2 pointers : No
Read offset correction                      : 667
Overread into Lead-In and Lead-Out          : No
Fill up missing offset samples with silence : Yes
Delete leading and trailing silent blocks   : No
Null samples used in CRC calculations       : Yes
Used interface                              : Native Win32 interface for Win NT & 2000
Used output format              : User Defined Encoder
Selected bitrate                : 896 kBit/s
Quality                         : High
Add ID3 tag                     : No
Command line compressor         : C:\Program Files\Exact Audio Copy\Flac\flac.exe
Additional command line options : -V -8 %source%
TOC of the extracted CD
     Track |   Start  |  Length  | Start sector | End sector
    ---------------------------------------------------------
        1  |  0:00.00 |  7:06.48 |         0    |    31997
        2  |  7:06.48 |  2:53.56 |     31998    |    45028
        3  | 10:00.29 |  4:52.16 |     45029    |    66944
        4  | 14:52.45 |  3:29.58 |     66945    |    82677
        5  | 18:22.28 |  6:13.65 |     82678    |   110717
        6  | 24:36.18 |  4:44.45 |    110718    |   132062
        7  | 29:20.63 |  4:28.01 |    132063    |   152163
        8  | 33:48.64 |  7:25.32 |    152164    |   185570
        9  | 41:14.21 |  5:42.74 |    185571    |   211294
       10  | 46:57.20 | 32:06.74 |    211295    |   355818
Range status and errors
Selected range
     Filename J:\Music\Monteverdi Series - 3\Monteverdi - Sweet Torment.wav
     Peak level 70.7 %
     Extraction speed 4.4 X
     Range quality 100.0 %
     Test CRC FD72D291
     Copy CRC FD72D291
     Copy OK
No errors occurred
End of status report
==== Log checksum 9DD5C56F120775A921448B36E0DB5D74E449F8BFE3D8A6CAC15C1222D83B180D ====


Скачать торрент 291.62 МБ


Download
Для скачивания .torrent файлов необходима регистрация
Сайт не распространяет и не хранит электронные версии произведений, а лишь предоставляет доступ к создаваемому пользователями каталогу ссылок на торрент-файлы, которые содержат только списки хеш-сумм

Страница 1 из 1

Ответить на тему

   Похожие торренты   Торрент 




cron