Регистрация ·  Логин: Пароль: Запомнить   · Забыли пароль?




Ответить на тему
Статистика раздачи
Размер: 212 МБ | Зарегистрирован: 10 мар 2018, 13:15 | .torrent скачан: 0 раз(а)
Сидеров: [ 0  | 0 байт/сек ]   Личеров: [ 0  | 0 байт/сек ]   DHT: [ 0 / 0 ]
Автор Сообщение

Модератор
Аватара пользователя

Стаж: 6 лет
Сообщения: 7870
Молдова

Сообщение 10 мар 2018, 13:15 

[Цитировать]

Tetrazzini-Prima voce

Жанр: vocal
Год выпуска диска: 1990
Производитель диска: Nimbus
Аудио кодек: APE
Тип рипа: image+.cue
Битрейт аудио: lossless
Продолжительность: 74'35"
LUCIA DI LAMMERMOOR, Donizetti, Regnava nel silenzio
Rec: 1909 Matrix: 3077f Victor Cat: 88302
IL BARBIERE DI SIVIGLIA, Rossini, Una voce poco fa
Rec: 1911 Matrix: 10071 Victor Cat: 88301
LA SONNAMBULA, Bellini, Ah, non credea mirarti
Rec: 1911 Matrix: 10064 Victor Cat: 88305
LA SONNAMBULA, Bellini, Ah! non giunge
Rec: 1911 Matrix: 10076 Victor Cat: 88313
LUCIA DI LAMMERMOOR, Donizetti, Ardon gl'incensi
Rec: 1911 Matrix: 10068 Victor Cat: 88299
L'Eco, Eckert
Rec: 1911 Matrix: 10070 Victor Cat: 88311
MIGNON, Thomas, Io son Titania
Rec: 1911 Matrix: 10073 Victor Cat: 88296
RIGOLETTO, Verdi, Caro nome
Rec: 1911 Matrix: 10074 Victor Cat: 88295
UN BALLO IN MASCHERA, Verdi, Saper vorreste
Rec: 1911 Matrix: 10059 Victor Cat: 88304
LAKMÉ, Delibes, Dov'è l'Indiana bruna
Rec: 1911 Matrix: 10075 Victor Cat: 88297
Air and Variations, Proch
Rec: 1911 Matrix: 10077 Victor Cat: 88307
IL TROVATORE, Verdi, Tacea la notte placida
Rec: 1912/1913 Matrix: 12918 Victor Cat: 88420
Serenata Inutile, Brahms
Rec: 1912/1913 Matrix: 12929 Victor Cat: 88427
O che assorta (Grande Valse), Venzano
Rec: 1912/1913 Matrix: 12930 Victor Cat: 88423
LA TRAVIATA, Verdi, Addio del passato
Rec: 1913 Matrix: af519HO HMV Cat: 2-053096
ROSALINDA, Veracini, Meco verrai (Pastorale)
Rec: 1913 Matrix: H0550F Unissued
Tre Giorni son che Nina, Ciampi
Rec: 1914 Matrix: 14815 Victor Cat: 88505
I VESPRI SICILIANI, Verdi, Merce dilette amiche
Rec: 1914 Matrix: 14822 Victor Cat: 88504
RIGOLETTO, Verdi, Bella figlia dell'amore
with Enrico Caruso, Pasquale Amato, Josephine Jacoby
Rec: 13 Feb. 1912 Matrix: 11447 HMV Cat: 2-054038
Доп. информация: rec.1909-1914
Exact Audio Copy V0.99 prebeta 4 from 23. January 2008
Отчёт EAC об извлечении, выполненном 2. октября 2009, 23:57
Luisa Tetrazzini / Prima voce-Tetrazzini
Дисковод: TSSTcorpCDDVDW TS-L632H Adapter: 2 ID: 0
Режим чтения : Достоверность
Использование точного потока : Да
Отключение кэша аудио : Да
Использование указателей C2 : Нет
Коррекция смещения при чтении : 6
Способность читать области Lead-in и Lead-out : Нет
Заполнение пропущенных сэмплов тишиной : Да
Удаление блоков с тишиной в начале и конце : Нет
При вычислениях CRC использовались нулевые сэмплы : Да
Интерфейс : Установленный внешний ASPI-интерфейс
Выходной формат : Внутренние WAV-операции
Формат сэмплов : 44.100 Гц; 16 бит; стерео
TOC извлечённого CD
Трек | Старт | Длительность | Начальный сектор | Конечный сектор
---------------------------------------------------------------------
1 | 0:00.00 | 3:32.03 | 0 | 15902
2 | 3:32.03 | 4:20.74 | 15903 | 35476
3 | 7:53.02 | 4:36.03 | 35477 | 56179
4 | 12:29.05 | 3:07.74 | 56180 | 70278
5 | 15:37.04 | 4:57.72 | 70279 | 92625
6 | 20:35.01 | 4:47.00 | 92626 | 114150
7 | 25:22.01 | 4:39.01 | 114151 | 135076
8 | 30:01.02 | 4:18.02 | 135077 | 154428
9 | 34:19.04 | 2:58.73 | 154429 | 167851
10 | 37:18.02 | 3:57.02 | 167852 | 185628
11 | 41:15.04 | 4:27.02 | 185629 | 205655
12 | 45:42.06 | 3:20.67 | 205656 | 220722
13 | 49:02.73 | 2:28.73 | 220723 | 231895
14 | 51:31.71 | 3:44.72 | 231896 | 248767
15 | 55:16.68 | 4:49.03 | 248768 | 270445
16 | 60:05.71 | 2:58.73 | 270446 | 283868
17 | 63:04.69 | 3:57.02 | 283869 | 301645
18 | 67:01.71 | 3:52.01 | 301646 | 319046
19 | 70:53.72 | 3:44.65 | 319047 | 335911
Характеристики диапазона извлечения и сообщения об ошибках
Выбранный диапазон
Имя файла D:\Tetrazzini\CD\Prima voce-Tetrazzini.wav
Пиковый уровень 70.6 %
Качество диапазона 100.0 %
CRC теста CB5E7C2E
CRC копии CB5E7C2E
Копирование... OK
Ошибок не произошло
AccurateRip: сводка
Трек 1 нет в базе данных
Трек 2 нет в базе данных
Трек 3 нет в базе данных
Трек 4 нет в базе данных
Трек 5 нет в базе данных
Трек 6 нет в базе данных
Трек 7 нет в базе данных
Трек 8 нет в базе данных
Трек 9 нет в базе данных
Трек 10 нет в базе данных
Трек 11 нет в базе данных
Трек 12 нет в базе данных
Трек 13 нет в базе данных
Трек 14 нет в базе данных
Трек 15 нет в базе данных
Трек 16 нет в базе данных
Трек 17 нет в базе данных
Трек 18 нет в базе данных
Трек 19 нет в базе данных
Ни одного трека нет в базе AccurateRip
Конец отчёта


Скачать торрент 212 МБ


Download
Для скачивания .torrent файлов необходима регистрация
Сайт не распространяет и не хранит электронные версии произведений, а лишь предоставляет доступ к создаваемому пользователями каталогу ссылок на торрент-файлы, которые содержат только списки хеш-сумм

Страница 1 из 1

Ответить на тему

   Похожие торренты   Торрент 




cron