Регистрация ·  Логин: Пароль: Запомнить   · Забыли пароль?




Ответить на тему
Статистика раздачи
Размер: 298.6 МБ | Зарегистрирован: 10 мар 2018, 13:15 | .torrent скачан: 0 раз(а)
Сидеров: [ 0  | 0 байт/сек ]   Личеров: [ 0  | 0 байт/сек ]   DHT: [ 0 / 0 ]
Автор Сообщение

Модератор
Аватара пользователя

Стаж: 6 лет
Сообщения: 7870
Молдова

Сообщение 10 мар 2018, 13:15 

[Цитировать]

Monteverdi Series: Vol.1 - Flaming Heart - I Fagiolini, Robert Hollingworth

Жанр: Classical, madrigal
Страна-производитель диска: UK
Год издания диска: 2006
Издатель (лейбл): Chandos Records
Номер по каталогу: CHAN 0730
Дата записи: 2006
Аудиокодек: FLAC
Тип рипа: image+.cue
Битрейт аудио: lossless
Продолжительность: 76:01
Источник: собственный рип
Наличие сканов в содержимом раздачи: да
Треклист:
Claudio Monteverdi (1567–1643)
[1] Prologo: La Musica 5:42
from Orfeo (1607)
[2] Luci serene e chiare 3:48
from Il quarto libro de madrigali (1603)
[3] Anima mia, perdona 5:21
from Il quarto libro de madrigali (1603)
[4] Tempro la cetra 9:17
from Concerto. Settimo libro de madrigali (1619)
[5] Ahi, come a un vago sol cortese giro 5:15
from Il quinto libro de madrigali (1605)
[6] Con che soavità 5:12
from Concerto. Settimo libro de madrigali (1619)
[7] Sinfonia 1:21
from Orfeo (1607)
[8] Ch’io t’ami 8:02
from Il quinto libro de madrigali (1605)
[9] Partenza amorosa 8:10
from Concerto. Settimo libro de madrigali (1619)
[10] Parlo miser’o taccio? 4:43
from Concerto. Settimo libro de madrigali (1619)
[11] Volgendo il ciel 10:59
from Madrigali guerrieri… Libro ottavo (1638)
[12] Longe da te, cor mio 2:59
from Il quarto libro de madrigali (1603)
[13] Piagn’e sospira 5:08
from Il quarto libro de madrigali (1603)
Исполнители:
I Fagiolini
Robert Hollingworth
director
Код:
Exact Audio Copy V1.0 beta 3 from 29. August 2011
EAC extraction logfile from 4. August 2012, 21:16
I Fagiolini, Robert Hollingworth / Monteverdi - Flaming Heart
Used drive  : HL-DT-STDVDRAM GSA-4083N   Adapter: 1  ID: 0
Read mode               : Secure
Utilize accurate stream : Yes
Defeat audio cache      : Yes
Make use of C2 pointers : No
Read offset correction                      : 667
Overread into Lead-In and Lead-Out          : No
Fill up missing offset samples with silence : Yes
Delete leading and trailing silent blocks   : No
Null samples used in CRC calculations       : Yes
Used interface                              : Native Win32 interface for Win NT & 2000
Used output format              : User Defined Encoder
Selected bitrate                : 896 kBit/s
Quality                         : High
Add ID3 tag                     : No
Command line compressor         : C:\Program Files\Exact Audio Copy\Flac\flac.exe
Additional command line options : -V -8 %source%
TOC of the extracted CD
     Track |   Start  |  Length  | Start sector | End sector
    ---------------------------------------------------------
        1  |  0:00.00 |  5:41.07 |         0    |    25581
        2  |  5:41.07 |  3:48.51 |     25582    |    42732
        3  |  9:29.58 |  5:21.43 |     42733    |    66850
        4  | 14:51.26 |  9:17.44 |     66851    |   108669
        5  | 24:08.70 |  5:15.68 |    108670    |   132362
        6  | 29:24.63 |  5:12.28 |    132363    |   155790
        7  | 34:37.16 |  1:21.04 |    155791    |   161869
        8  | 35:58.20 |  8:02.23 |    161870    |   198042
        9  | 44:00.43 |  8:10.49 |    198043    |   234841
       10  | 52:11.17 |  4:43.65 |    234842    |   256131
       11  | 56:55.07 | 10:59.31 |    256132    |   305587
       12  | 67:54.38 |  2:59.11 |    305588    |   319023
       13  | 70:53.49 |  5:10.37 |    319024    |   342310
Range status and errors
Selected range
     Filename J:\Music\Monteverdi Series - 1\Monteverdi - Flaming Heart.wav
     Peak level 98.3 %
     Extraction speed 4.4 X
     Range quality 100.0 %
     Test CRC 617DB11C
     Copy CRC 617DB11C
     Copy OK
No errors occurred
End of status report
==== Log checksum D798D9C67E4A6EA004130E9B72C6FF2FAE1275083B5A62447D0194BEC5BD6631 ====


Скачать торрент 298.6 МБ


Download
Для скачивания .torrent файлов необходима регистрация
Сайт не распространяет и не хранит электронные версии произведений, а лишь предоставляет доступ к создаваемому пользователями каталогу ссылок на торрент-файлы, которые содержат только списки хеш-сумм

Страница 1 из 1

Ответить на тему

   Похожие торренты   Торрент 




cron