Регистрация ·  Логин: Пароль: Запомнить   · Забыли пароль?




Ответить на тему
Статистика раздачи
Размер: 247.86 МБ | Зарегистрирован: 10 мар 2018, 13:15 | .torrent скачан: 0 раз(а)
Сидеров: [ 0  | 0 байт/сек ]   Личеров: [ 0  | 0 байт/сек ]   DHT: [ 0 / 0 ]
Автор Сообщение

Модератор
Аватара пользователя

Стаж: 6 лет
Сообщения: 7870
Молдова

Сообщение 10 мар 2018, 13:15 

[Цитировать]

Bach, Handel, Mozart, Gounod, Shubert, Frank / Ave Maria

Жанр: Classical
Год выпуска диска: 1990
Производитель диска: Philips Classic
Аудио кодек: FLAC
Тип рипа: tracks+.cue
Битрейт аудио: lossless
Продолжительность: 59.26
Трэклист:
1. Ellens Gesang III ("Ave Maria"), song for voice & piano, D. 839 (Op. 52/6) / Franz Shubert
2. Bist du bei mir, aria arranged for voice & continuo (after Gottfried Stölzel), BWV 508 / J.S.Bach
3. Ave verum Corpus, motet for chorus, strings & organ, K. 618 / W.A.Mozart
4. Panis angelicus for tenor, organ, harp, cello & bass / Cesar Frank
5. Semele, oratorio, HWV 58: Where'er you walk / G.F. Handel
6. Semele, oratorio, HWV 58: O sleep, why dost thou leave me / G.F.Handel
7. Weihnachtsoratorium (Christmas Oratorio), in six parts, BWV 248 (BC D7): Flößt, mein Heiland, flößt dein Namen / J.S.Bach
8. Exsultate, jubilate, motet for soprano & orchestra, K. 165 (K. 158a) / W.A.Mozart
9. Repentir ("O Divine Redeemer"), song for mezzo-soprano & orchestra / Charles Gounod
10. Schlafendes Jesuskind ("Sohn der Jungfrau"), song for voice & piano (Mörike Lieder) / Hugo Wolf
11. Ave Maria, song for voice & piano in B flat major / Charles Gounod
performed by Elly Ameling- soprano(1,7,8), Frank Patterson- tenor (4,5,6,10), Hermann Prey- baritone (2), José Carreras- tenor (11), Kiri Te Kanawa- soprano (9), Dalton Baldwin- piano, John Constable- organ, Leonard Hokanson- harpsichord , Marcel Cervera- viola da gamba
Exact Audio Copy V0.99 prebeta 4 from 23. January 2008
EAC extraction logfile from 6. May 2009, 4:02
Various / Ave Maria - Geistliche Lieder
Used drive : HL-DT-STDVDRAM GSA-T40N Adapter: 0 ID: 0
Read mode : Secure
Utilize accurate stream : Yes
Defeat audio cache : Yes
Make use of C2 pointers : No
Read offset correction : 667
Overread into Lead-In and Lead-Out : No
Fill up missing offset samples with silence : Yes
Delete leading and trailing silent blocks : No
Null samples used in CRC calculations : Yes
Used interface : Native Win32 interface for Win NT & 2000
Gap handling : Appended to previous track
Used output format : User Defined Encoder
Selected bitrate : 128 kBit/s
Quality : High
Add ID3 tag : No
Command line compressor : D:\Prog\Exact Audio Copy\Flac\flac.exe
Additional command line options : ?8 ?V ?T "ARTIST=%a" ?T "TITLE=%t" ?T "ALBUM=%g" ?T "DATE=%y" ?T "TRACKNUMBER=%n" ?T "GENRE=%m" ?T "COMMENT=EAC FLAC ?8" %s
TOC of the extracted CD
Track | Start | Length | Start sector | End sector
---------------------------------------------------------
1 | 0:02.00 | 5:52.00 | 150 | 26549
2 | 5:54.00 | 2:24.00 | 26550 | 37349
3 | 8:18.00 | 3:58.00 | 37350 | 55199
4 | 12:16.00 | 4:17.00 | 55200 | 74474
5 | 16:33.00 | 4:33.00 | 74475 | 94949
6 | 21:06.00 | 3:27.00 | 94950 | 110474
7 | 24:33.00 | 5:29.00 | 110475 | 135149
8 | 30:02.00 | 17:03.00 | 135150 | 211874
9 | 47:05.00 | 6:09.00 | 211875 | 239549
10 | 53:14.00 | 3:41.00 | 239550 | 256124
11 | 56:55.00 | 2:51.00 | 256125 | 268949
Track 1
Filename H:\Music\Rip AM\2\01 - Franz Schubert - 'Ave Maria', op.52 Nr.6 D.839.wav
Pre-gap length 0:00:04.00
Peak level 80.6 %
Track quality 99.9 %
Test CRC A569F00D
Copy CRC A569F00D
Track not present in AccurateRip database
Copy OK
Track 2
Filename H:\Music\Rip AM\2\02 - J. S. Bach - 'Bist du bei mir', BWV 508.wav
Pre-gap length 0:00:02.00
Peak level 40.8 %
Track quality 100.0 %
Test CRC 8E8A48D3
Copy CRC 8E8A48D3
Track not present in AccurateRip database
Copy OK
Track 3
Filename H:\Music\Rip AM\2\03 - W. A. Mozart - 'Ave verum corpus', KV 618.wav
Pre-gap length 0:00:02.00
Peak level 56.8 %
Track quality 100.0 %
Test CRC 454BA2AF
Copy CRC 454BA2AF
Track not present in AccurateRip database
Copy OK
Track 4
Filename H:\Music\Rip AM\2\04 - Cesar Franck - 'Panis angelicus'.wav
Pre-gap length 0:00:02.00
Peak level 81.3 %
Track quality 99.9 %
Test CRC BE12F1C0
Copy CRC BE12F1C0
Track not present in AccurateRip database
Copy OK
Track 5
Filename H:\Music\Rip AM\2\05 - G. F. Hдndel - 'Wher'er you walk'.wav
Pre-gap length 0:00:02.00
Peak level 72.8 %
Track quality 100.0 %
Test CRC 54E90AB6
Copy CRC 54E90AB6
Track not present in AccurateRip database
Copy OK
Track 6
Filename H:\Music\Rip AM\2\06 - G. F. Hдndel - 'O sleep, why dost thou leave me'.wav
Pre-gap length 0:00:02.00
Peak level 73.3 %
Track quality 100.0 %
Test CRC 20B5840F
Copy CRC 20B5840F
Track not present in AccurateRip database
Copy OK
Track 7
Filename H:\Music\Rip AM\2\07 - J. S. Bach - 'FlцЯt, mein Heiland, flцЯt dein Namen', WO, BWV 248.wav
Pre-gap length 0:00:02.00
Peak level 56.1 %
Track quality 100.0 %
Test CRC 15F917A8
Copy CRC 15F917A8
Track not present in AccurateRip database
Copy OK
Track 8
Filename H:\Music\Rip AM\2\08 - W. A. Mozart - 'Exsultate, jubilate', KV 165.wav
Pre-gap length 0:00:02.00
Peak level 90.9 %
Track quality 100.0 %
Test CRC 0758A24D
Copy CRC 0758A24D
Track not present in AccurateRip database
Copy OK
Track 9
Filename H:\Music\Rip AM\2\09 - Charles Gounod - 'O divine Redeemer'.wav
Pre-gap length 0:00:02.00
Peak level 94.5 %
Track quality 100.0 %
Test CRC CF041F81
Copy CRC CF041F81
Track not present in AccurateRip database
Copy OK
Track 10
Filename H:\Music\Rip AM\2\10 - Hugo Wolf - 'Schlafendes Jesuskind'.wav
Pre-gap length 0:00:02.00
Peak level 70.1 %
Track quality 100.0 %
Test CRC CE1F4EC1
Copy CRC CE1F4EC1
Track not present in AccurateRip database
Copy OK
Track 11
Filename H:\Music\Rip AM\2\11 - Charles Gounod - 'Ave Maria', nach Prдludium von J. S. Bach.wav
Pre-gap length 0:00:02.00
Peak level 79.5 %
Track quality 100.0 %
Test CRC 733C1FA0
Copy CRC 733C1FA0
Track not present in AccurateRip database
Copy OK
None of the tracks are present in the AccurateRip database
No errors occurred
End of status report


Скачать торрент 247.86 МБ


Download
Для скачивания .torrent файлов необходима регистрация
Сайт не распространяет и не хранит электронные версии произведений, а лишь предоставляет доступ к создаваемому пользователями каталогу ссылок на торрент-файлы, которые содержат только списки хеш-сумм

Страница 1 из 1

Ответить на тему

   Похожие торренты   Торрент 




cron