Регистрация ·  Логин: Пароль: Запомнить   · Забыли пароль?




Ответить на тему
Статистика раздачи
Размер: 288.13 МБ | Зарегистрирован: 10 мар 2018, 13:15 | .torrent скачан: 0 раз(а)
Сидеров: [ 0  | 0 байт/сек ]   Личеров: [ 0  | 0 байт/сек ]   DHT: [ 0 / 0 ]
Автор Сообщение

Модератор
Аватара пользователя

Стаж: 6 лет
Сообщения: 7870
Молдова

Сообщение 10 мар 2018, 13:15 

[Цитировать]

Francisco Guerau: Passacailles · José Marín: Tonos Humanos - Laberintos Ingeniosos

Жанр: Classical, guitar, song
Страна-производитель диска: France
Год издания диска: 2009
Издатель (лейбл): Zig-Zag Territoires
Номер по каталогу: ZZT090301
Дата записи: 2007
Аудиокодек: FLAC
Тип рипа: image+.cue
Битрейт аудио: lossless
Продолжительность: 58:37
Источник: собственный рип
Наличие сканов в содержимом раздачи: да
Треклист:
Francisco Guerau (1649-1722)
José Marín (1618-1699)
Primera Jornada
[1] Francisco Guerau: Marionas
[2] José Marín: La verdad de Perogrullo
[3] José Marín: Ojos, pues me desdeñáis
[4] José Marín: Tortolilla, si no es por amor
[5] José Marín: Mi señora Mariantaños
Segunda Jornada
[6] Francisco Guerau: Passacalles por el primer tono
[7] José Marín: De amores y de ausencias
[8] José Marín: Si quieres vivir
[9] José Marín: Que bien canta un ruiseñor
[10] José Marín: Si quieres dar, Marica, en lo cierto
Tercera Jornada
[11] Francisco Guerau: Gallardas
[12] José Marín: Aquella sierra nevada
[13] José Marín: Al son de los arroyuelos
[14] José Marín: Montes del Tajo
[15] José Marín: Sepan todos que muero de un desdén
Исполнители:
Laberintos Ingeniosos
Lambert Climent tenor
Pedro Estevan percussión
Xavier Díaz-Latorre guitarra de cinco órdenes
Код:
Exact Audio Copy V1.0 beta 3 from 29. August 2011
EAC extraction logfile from 25. June 2012, 15:17
Laberintos Ingeniosos / Guerau - Passacailles; Marin - Tonos Humanos
Used drive  : Optiarc DVD+-RW AD-5170S   Adapter: 1  ID: 2
Read mode               : Secure
Utilize accurate stream : Yes
Defeat audio cache      : Yes
Make use of C2 pointers : No
Read offset correction                      : 48
Overread into Lead-In and Lead-Out          : No
Fill up missing offset samples with silence : Yes
Delete leading and trailing silent blocks   : No
Null samples used in CRC calculations       : Yes
Used interface                              : Native Win32 interface for Win NT & 2000
Used output format              : User Defined Encoder
Selected bitrate                : 896 kBit/s
Quality                         : High
Add ID3 tag                     : Yes
Command line compressor         : C:\Program Files\Exact Audio Copy\Flac\flac.exe
Additional command line options : -V -8 %source%
TOC of the extracted CD
     Track |   Start  |  Length  | Start sector | End sector
    ---------------------------------------------------------
        1  |  0:00.00 |  5:44.33 |         0    |    25832
        2  |  5:44.33 |  1:50.56 |     25833    |    34138
        3  |  7:35.14 |  3:59.35 |     34139    |    52098
        4  | 11:34.49 |  2:36.52 |     52099    |    63850
        5  | 14:11.26 |  1:40.31 |     63851    |    71381
        6  | 15:51.57 |  9:19.45 |     71382    |   113351
        7  | 25:11.27 |  2:36.54 |    113352    |   125105
        8  | 27:48.06 |  2:59.13 |    125106    |   138543
        9  | 30:47.19 |  4:27.74 |    138544    |   158642
       10  | 35:15.18 |  2:49.32 |    158643    |   171349
       11  | 38:04.50 |  5:30.04 |    171350    |   196103
       12  | 43:34.54 |  5:34.54 |    196104    |   221207
       13  | 49:09.33 |  2:46.73 |    221208    |   233730
       14  | 51:56.31 |  2:45.73 |    233731    |   246178
       15  | 54:42.29 |  3:56.42 |    246179    |   263920
Range status and errors
Selected range
     Filename D:\temp\pics\Guerau - Passacailles; Marin - Tonos Humanos\Guerau - Passacailles; Marin - Tonos Humanos.wav
     Peak level 100.0 %
     Extraction speed 3.9 X
     Range quality 100.0 %
     Test CRC 4DD6385E
     Copy CRC 4DD6385E
     Copy OK
No errors occurred
End of status report
==== Log checksum F0E50B72ADEEBF004822E0087023B54BA924DD70846E576FF946B44DF4A46829 ====


Скачать торрент 288.13 МБ


Download
Для скачивания .torrent файлов необходима регистрация
Сайт не распространяет и не хранит электронные версии произведений, а лишь предоставляет доступ к создаваемому пользователями каталогу ссылок на торрент-файлы, которые содержат только списки хеш-сумм

Страница 1 из 1

Ответить на тему

   Похожие торренты   Торрент 




cron