Регистрация ·  Логин: Пароль: Запомнить   · Забыли пароль?




Ответить на тему
Статистика раздачи
Размер: 180.16 МБ | Зарегистрирован: 10 мар 2018, 13:15 | .torrent скачан: 0 раз(а)
Сидеров: [ 0  | 0 байт/сек ]   Личеров: [ 0  | 0 байт/сек ]   DHT: [ 0 / 0 ]
Автор Сообщение

Модератор
Аватара пользователя

Стаж: 6 лет
Сообщения: 7870
Молдова

Сообщение 10 мар 2018, 13:15 

[Цитировать]

Robert Schumann - Frauenliebe und Leben / Леонид Десятников - Любовь и жизнь поэта

Жанр: Вокальный цикл
Год выпуска диска: 2008
Производитель диска: Россия
Аудио кодек: APE
Тип рипа: image+.cue
Битрейт аудио: lossless
Продолжительность: 62:11
Трэклист:
01. Schumann: Seit ich ihn gesehen / Adelbert von Chamisso 02:28
02. Schumann: Er, der Herrlichste fon allen / Adelbert von Chamisso 02:58
03. Schumann: Ich kann's nicht fassen, nicht glauben / Adelbert von Chamisso 01:53
04. Schumann: Du Ring an meinem Finger / Adelbert von Chamisso 02:45
05. Schumann: Helft mir, ihr Schwestern / Adelbert von Chamisso 01:48
06. Schumann: Süßer Freund, du blackest / Adelbert von Chamisso 04:53
07. Schumann: An meinem Herzen, an meiner Brust / Adelbert von Chamisso 01:06
08. Schumann: Nun hast du mir den ersten Schmerz getan / Adelbert von Chamisso 03:42
09. Десятников: Послание, одобряющее стрижку волос / Олейников 04:12
10. Десятников: Старуха / Хармс 03:50
11. Десятников: Муха / Олейников 05:07
12. Десятников: Постоянство веселья и грязи / Хармс 03:59
13. Десятников: Жук (рапсодия) / Олейников 05:24
14. Десятников: Пассакалия / Хармс 04:36
15. Десятников: А я... / Хармс 02:06
16. [Бонус]Десятников: Письмо отцу / Гидон Кремер 04:02
17. [Бонус]Десятников: Старинный романс / Ким Рыжов 03:03
18. [Бонус]Десятников: Secret Land / Robert Graves 04:12
Доп. информация:
Вокальные циклы на стихи А. фон Шамиссо, Н. Олейникова и Д. Хармса
Recorded at St. Catherine Lutheran Church, Saint-Petersburg, 2008
Исполняют
Юлия Корпачёва - сопрано
Алексей Гориболь - фортепиано
Exact Audio Copy V0.99 prebeta 4 from 23. January 2008
Отчёт EAC об извлечении, выполненном 23. сентября 2008, 17:55
Юлия Корпачева, Алексей Гориболь / A Woman's Life and Love, A Poet's Love and Life
Дисковод: HL-DT-STDVD-ROM GDR8161B Adapter: 1 ID: 1
Режим чтения : Достоверность
Использование точного потока : Да
Отключение кэша аудио : Да
Использование указателей C2 : Нет
Коррекция смещения при чтении : 102
Способность читать области Lead-in и Lead-out : Нет
Заполнение пропущенных сэмплов тишиной : Да
Удаление блоков с тишиной в начале и конце : Нет
При вычислениях CRC использовались нулевые сэмплы : Да
Интерфейс : Встроенный Win32-интерфейс для Win NT/2000
Выходной формат : Monkey's Audio Lossless Encoder v3.99 DLL
Формат сэмплов : High Lossless Compression
TOC извлечённого CD
Трек | Старт | Длительность | Начальный сектор | Конечный сектор
---------------------------------------------------------------------
1 | 0:00.00 | 2:28.21 | 0 | 11120
2 | 2:28.21 | 2:58.25 | 11121 | 24495
3 | 5:26.46 | 1:53.17 | 24496 | 32987
4 | 7:19.63 | 2:45.43 | 32988 | 45405
5 | 10:05.31 | 1:48.07 | 45406 | 53512
6 | 11:53.38 | 4:53.60 | 53513 | 75547
7 | 16:47.23 | 1:06.41 | 75548 | 80538
8 | 17:53.64 | 3:42.15 | 80539 | 97203
9 | 21:36.04 | 4:12.45 | 97204 | 116148
10 | 25:48.49 | 3:50.59 | 116149 | 133457
11 | 29:39.33 | 5:07.11 | 133458 | 156493
12 | 34:46.44 | 3:59.22 | 156494 | 174440
13 | 38:45.66 | 5:24.47 | 174441 | 198787
14 | 44:10.38 | 4:36.29 | 198788 | 219516
15 | 48:46.67 | 2:06.03 | 219517 | 228969
16 | 50:52.70 | 4:02.41 | 228970 | 247160
17 | 54:55.36 | 3:03.69 | 247161 | 260954
18 | 57:59.30 | 4:12.00 | 260955 | 279854
Характеристики диапазона извлечения и сообщения об ошибках
Выбранный диапазон
Имя файла D:\Music\Десятников\A Woman's Life and Love; A Poet's Love and Life\Юлия Корпачева, Алексей Гориболь - A Woman's Life and Love; A Poet's Love and Life.ape
Пиковый уровень 100.0 %
Качество диапазона 99.9 %
CRC копии 146439E1
Копирование... OK
Ошибок не произошло
Конец отчёта


Скачать торрент 180.16 МБ


Download
Для скачивания .torrent файлов необходима регистрация
Сайт не распространяет и не хранит электронные версии произведений, а лишь предоставляет доступ к создаваемому пользователями каталогу ссылок на торрент-файлы, которые содержат только списки хеш-сумм

Страница 1 из 1

Ответить на тему

   Похожие торренты   Торрент 




cron