Регистрация ·  Логин: Пароль: Запомнить   · Забыли пароль?




Ответить на тему
Статистика раздачи
Размер: 328.73 МБ | Зарегистрирован: 10 мар 2018, 13:15 | .torrent скачан: 0 раз(а)
Сидеров: [ 0  | 0 байт/сек ]   Личеров: [ 0  | 0 байт/сек ]   DHT: [ 0 / 0 ]
Автор Сообщение

Модератор
Аватара пользователя

Стаж: 6 лет
Сообщения: 7870
Молдова

Сообщение 10 мар 2018, 13:15 

[Цитировать]

Marcello Benedetto – Cassandra/ Bach J.S. - Concerto c-moll after B.Marcello, BWV 981 (Kai Wessel, David Blunden)

Жанр: Baroque/Cantata
Год выпуска диска: 2010
Производитель диска: Франция
Издатель (лейбл): Aeon
Номер по каталогу: AECD 1087
Дата записи: 2009
Аудио кодек: APE
Тип рипа: image+.cue
Битрейт аудио: lossless
Продолжительность: 66’44
Источник: Собственный рип
Наличие сканов в содержимом раздачи: да
Исполнители:
Kai Wessel - contreténor
David Blunden - clavecin
Треклист:
Marcello Benedetto – Cassandra (Cantata per Alto):
01. Odi, o Troja, Cassandra!
02. Satto il piè de' soldati, e de' cavalli
03. Nell'aureo Talamo
04. M'a il furibondo Greco
05. Ahi spettacolo mesto
06. e suonan le contrade ampie di Troja
07. Altri pianti e lamenti
08. O come incalza collui che feri' Marte!
09. O misero! non sai
10. Ove mi fugo mai, dove mi celo?
11. Alla corrente del Xanto sbalza
12. O Priamo, egli e tuo sangue!
13. Vieni ò sposa
14. Ei cade sulla polve
15. Va tutto in pianto, ed in tumulto Troja
16. Chi nell'Abisso mi sotterra?
Bach - Concerto c-moll after B.Marcello, BWV 981:
17. I. Adagio
18. II. Vivave
19. III. Adagio
20. IV. Prestissimo
Exact Audio Copy V0.99 prebeta 4 from 23. January 2008
EAC extraction logfile from 20. October 2010, 19:01
Kai Wessel, David Blunden / Marcello Benedetto - Cassandra
Used drive : PIONEER DVD-RW DVR-218L Adapter: 1 ID: 0
Read mode : Secure
Utilize accurate stream : Yes
Defeat audio cache : Yes
Make use of C2 pointers : No
Read offset correction : 6
Overread into Lead-In and Lead-Out : No
Fill up missing offset samples with silence : Yes
Delete leading and trailing silent blocks : No
Null samples used in CRC calculations : Yes
Used interface : Native Win32 interface for Win NT & 2000
Used output format : Internal WAV Routines
Sample format : 44.100 Hz; 16 Bit; Stereo
TOC of the extracted CD
Track | Start | Length | Start sector | End sector
---------------------------------------------------------
1 | 0:00.00 | 2:17.11 | 0 | 10285
2 | 2:17.11 | 3:09.14 | 10286 | 24474
3 | 5:26.25 | 4:16.10 | 24475 | 43684
4 | 9:42.35 | 3:46.50 | 43685 | 60684
5 | 13:29.10 | 3:11.63 | 60685 | 75072
6 | 16:40.73 | 2:45.23 | 75073 | 87470
7 | 19:26.21 | 2:38.61 | 87471 | 99381
8 | 22:05.07 | 3:28.64 | 99382 | 115045
9 | 25:33.71 | 3:24.36 | 115046 | 130381
10 | 28:58.32 | 4:13.53 | 130382 | 149409
11 | 33:12.10 | 1:59.32 | 149410 | 158366
12 | 35:11.42 | 3:40.56 | 158367 | 174922
13 | 38:52.23 | 4:48.26 | 174923 | 196548
14 | 43:40.49 | 2:30.59 | 196549 | 207857
15 | 46:11.33 | 2:40.70 | 207858 | 219927
16 | 48:52.28 | 3:26.30 | 219928 | 235407
17 | 52:18.58 | 2:34.72 | 235408 | 247029
18 | 54:53.55 | 1:56.58 | 247030 | 255787
19 | 56:50.38 | 4:04.20 | 255788 | 274107
20 | 60:54.58 | 5:47.72 | 274108 | 300204
Range status and errors
Selected range
Filename C:\Marcello Benedetto - Cassandra.wav
Peak level 93.4 %
Range quality 100.0 %
Copy CRC 40B9A7B2
Copy OK
No errors occurred
End of status report


Скачать торрент 328.73 МБ


Download
Для скачивания .torrent файлов необходима регистрация
Сайт не распространяет и не хранит электронные версии произведений, а лишь предоставляет доступ к создаваемому пользователями каталогу ссылок на торрент-файлы, которые содержат только списки хеш-сумм

Страница 1 из 1

Ответить на тему

   Похожие торренты   Торрент 




cron