Регистрация ·  Логин: Пароль: Запомнить   · Забыли пароль?




Ответить на тему
Статистика раздачи
Размер: 377.64 МБ | Зарегистрирован: 10 мар 2018, 13:15 | .torrent скачан: 0 раз(а)
Сидеров: [ 0  | 0 байт/сек ]   Личеров: [ 0  | 0 байт/сек ]   DHT: [ 0 / 0 ]
Автор Сообщение

Модератор
Аватара пользователя

Стаж: 6 лет
Сообщения: 7870
Молдова

Сообщение 10 мар 2018, 13:15 

[Цитировать]

Rolando Villazon - Mexico

Жанр: Pop Classical
Страна-производитель диска: Germany
Год издания диска: 2010
Издатель (лейбл): Deutsche Grammophon
Номер по каталогу: 000289 477 9012 9 |G|H|
Дата записи: 2010
Аудиокодек: FLAC
Тип рипа: image+.cue
Битрейт аудио: lossless
Продолжительность: 1:10:24:66
Источник: собственный рип
Наличие сканов в содержимом раздачи: да
Треклист:
01. Besame mucho como si fuera (arranged by Efrain Oscher)
02. Despedida (Farewell) (arranged by Efrain Oscher)
03. Dime que si (arranged by Efrain Oscher)
04. Cucurrucucú (Dicen que por las noches) (Arranged by Gonzalo Grau)
05. Intima (arranged by Gonzalo Grau)
06. Comprendo (arrangement for voice and guitar)
07. Veracruz (Yo nací con la luna) (arranged by Gonzalo Grau)
08. Te quiero dijiste, tomando (arranged by Daniel Catán & Gonzalo Grau)
09. Perfidia (Nadie comprende) (arranged by Efrain Oscher)
10. Noche de Ronda que triste pasa (arranged by Efrain Oscher)
11. El reloj no marques (arranged by Daniel Catán)
12. Un viejo amor (arranged by Gonzalo Grau)
13. Solamente una vez ame en la vida (arranged by Efrain Oscher)
14. Besos robados
15. Estrellita (arranged by Alfonso Montes)
16. Medley:Cielito lindo\Mexico lindo y querido

Исполнители:
Rolando Villazon, Tenor
Efrain Oscher, Flute
Nigel Shore, Oboe
Eduardo Calzada, Bassoon
Francisco Flores, Trumpet
Juan Manuel González, Violin
Juan Lucas Aisemberg, Viola
Pablo Bercellini, Cello
Gabriel León, Double Bass
Rhodri Clarke, Piano
César Nigro, Guitar
Conny Sommer, Percussion
Peter Kuhnsch, Percussion
Код:
Exact Audio Copy V0.99 prebeta 5 from 4. May 2009
Отчёт EAC об извлечении, выполненном 29. сентября 2010, 0:15
Rolando Villazon / I Mexico! (Prestige Edition)
Дисковод: SlimtypeDVD A DS8A2S   Adapter: 1  ID: 0
Режим чтения                 : Достоверность
Использование точного потока : Да
Отключение кэша аудио        : Да
Использование указателей C2  : Нет
Коррекция смещения при чтении                     : 6
Способность читать области Lead-in и Lead-out     : Нет
Заполнение пропущенных сэмплов тишиной            : Да
Удаление блоков с тишиной в начале и конце        : Нет
При вычислениях CRC использовались нулевые сэмплы : Да
Интерфейс                                         : Встроенный Win32-интерфейс для Win NT/2000
Выходной формат          : Пользовательский кодировщик
Выбранный битрейт        : 768 kBit/s
Качество                 : Высокий
Добавление ID3-тэга      : Нет
Утилита сжатия           : C:\Program Files\Exact Audio Copy\FLAC\FLAC.EXE
Дополнительные параметры : -6 -V -T "ARTIST=%a" -T "TITLE=%t" -T "ALBUM=%g" -T "DATE=%y" -T "TRACKNUMBER=%n" -T "GENRE=%m" -T "COMMENT=%e" %s -o %d
TOC извлечённого CD
     Трек |   Старт  | Длительность | Начальный сектор | Конечный сектор
    ---------------------------------------------------------------------
       1  |  0:00.00 |    5:29.45   |           0      |      24719
       2  |  5:29.45 |    4:08.50   |       24720      |      43369
       3  |  9:38.20 |    3:53.00   |       43370      |      60844
       4  | 13:31.20 |    5:09.02   |       60845      |      84021
       5  | 18:40.22 |    2:51.54   |       84022      |      96900
       6  | 21:32.01 |    3:28.47   |       96901      |     112547
       7  | 25:00.48 |    3:07.15   |      112548      |     126587
       8  | 28:07.63 |    5:28.72   |      126588      |     151259
       9  | 33:36.60 |    4:32.38   |      151260      |     171697
      10  | 38:09.23 |    4:15.54   |      171698      |     190876
      11  | 42:25.02 |    3:05.38   |      190877      |     204789
      12  | 45:30.40 |    3:59.50   |      204790      |     222764
      13  | 49:30.15 |    4:04.00   |      222765      |     241064
      14  | 53:34.15 |    3:55.02   |      241065      |     258691
      15  | 57:29.17 |    3:03.14   |      258692      |     272430
      16  | 60:32.31 |    9:52.35   |      272431      |     316865
Характеристики диапазона извлечения и сообщения об ошибках
Выбранный диапазон
     Имя файла D:\EAC\Rolando Villazon -I Mexico (2010 Deutsche Grammophon) (Lossless)\Rolando Villazon - I Mexico! (Prestige Edition).wav
     Пиковый уровень 100.0 %
     Качество диапазона 99.9 %
     CRC теста 4B437268
     CRC копии 4B437268
     Копирование... OK
Ошибок не произошло
AccurateRip: сводка
Трек  1  нет в базе данных
Трек  2  нет в базе данных
Трек  3  нет в базе данных
Трек  4  нет в базе данных
Трек  5  нет в базе данных
Трек  6  нет в базе данных
Трек  7  нет в базе данных
Трек  8  нет в базе данных
Трек  9  нет в базе данных
Трек 10  нет в базе данных
Трек 11  нет в базе данных
Трек 12  нет в базе данных
Трек 13  нет в базе данных
Трек 14  нет в базе данных
Трек 15  нет в базе данных
Трек 16  нет в базе данных
Ни одного трека нет в базе AccurateRip
Конец отчёта




Скачать торрент 377.64 МБ


Download
Для скачивания .torrent файлов необходима регистрация
Сайт не распространяет и не хранит электронные версии произведений, а лишь предоставляет доступ к создаваемому пользователями каталогу ссылок на торрент-файлы, которые содержат только списки хеш-сумм

Страница 1 из 1

Ответить на тему

   Похожие торренты   Торрент 




cron