Регистрация ·  Логин: Пароль: Запомнить   · Забыли пароль?




Ответить на тему
Статистика раздачи
Размер: 293.66 МБ | Зарегистрирован: 10 мар 2018, 13:16 | .torrent скачан: 0 раз(а)
Сидеров: [ 0  | 0 байт/сек ]   Личеров: [ 0  | 0 байт/сек ]   DHT: [ 0 / 0 ]
Автор Сообщение

Модератор
Аватара пользователя

Стаж: 6 лет
Сообщения: 7870
Молдова

Сообщение 10 мар 2018, 13:16 

[Цитировать]

Terradellas Domenec – Furor (Maria Grazia Schiavo, Stefano Demicheli)

Жанр: Baroque/Vocal
Год выпуска диска: 2009
Производитель диска: EU
Издатель (лейбл): Fuga Libera
Номер по каталогу: FUG551
Дата записи: 2008
Аудио кодек: APE
Тип рипа: image+.cue
Битрейт аудио: lossless
Продолжительность: 66’04
Источник: Собственный рип
Наличие сканов в содержимом раздачи: да
Исполнители:
Maria Grazia Schiavo, soprano
Dolce & Tempesta
Stefano Demicheli, harpsichord & direction
Треклист:
1. Sinfonia (Sesostri, re d'Egitto, 1750-51): I. Allegro
2. II. Larghetto
3. III. Spiritoso
4. Dono d'amica sorte non cura il mio valore (Merope, 1743)
5. Solitudini amene - Spiega omai le placid'ali (Sesostri, re d'Egitto)
6. Dove si vide mai di me più sventurata (Merope)
7. Per quel paterno amplesso (Artaserse, 1744)
8. Ah scellerato! - Un empio m'accusa (Merope)
9. L'onda dal mar divisa (Artaserse)
10. Sinfonia (Merope): I. [Allegro con brio]
11. II. Larghetto
12. III. Allegro
13. Qué trágico espectáculo, cantata als Dolors de Maria Santissima
14. Qual sventura è la mia - Se perde l'usignolo (Sesostri, re d'Egitto)
15. Fra l'ombre del timore (Sesostri, re d'Egitto)
16. Tremate, si tremate, mostri di crudeltà (Sesostri, re d'Egitto)
Код:
Exact Audio Copy V0.99 prebeta 4 from 23. January 2008
EAC extraction logfile from 26. October 2010, 19:52
Maria Grazia Schiavo, Stefano Demicheli - Dolce & Tempesta / Terradellas Domenec (1713-1751) - Furor
Used drive  : PIONEER DVD-RW  DVR-218L   Adapter: 1  ID: 0
Read mode               : Secure
Utilize accurate stream : Yes
Defeat audio cache      : Yes
Make use of C2 pointers : No
Read offset correction                      : 6
Overread into Lead-In and Lead-Out          : No
Fill up missing offset samples with silence : Yes
Delete leading and trailing silent blocks   : No
Null samples used in CRC calculations       : Yes
Used interface                              : Native Win32 interface for Win NT & 2000
Used output format : Internal WAV Routines
Sample format      : 44.100 Hz; 16 Bit; Stereo
TOC of the extracted CD
     Track |   Start  |  Length  | Start sector | End sector
    ---------------------------------------------------------
        1  |  0:00.00 |  2:05.06 |         0    |     9380
        2  |  2:05.06 |  1:56.06 |      9381    |    18086
        3  |  4:01.12 |  0:57.04 |     18087    |    22365
        4  |  4:58.16 |  5:44.50 |     22366    |    48215
        5  | 10:42.66 |  2:17.61 |     48216    |    58551
        6  | 13:00.52 |  4:00.28 |     58552    |    76579
        7  | 17:01.05 |  5:07.39 |     76580    |    99643
        8  | 22:08.44 |  3:49.63 |     99644    |   116881
        9  | 25:58.32 |  6:23.73 |    116882    |   145679
       10  | 32:22.30 |  1:29.61 |    145680    |   152415
       11  | 33:52.16 |  1:25.53 |    152416    |   158843
       12  | 35:17.69 |  1:39.39 |    158844    |   166307
       13  | 36:57.33 |  7:16.58 |    166308    |   199065
       14  | 44:14.16 |  8:49.70 |    199066    |   238810
       15  | 53:04.11 |  6:02.32 |    238811    |   265992
       16  | 59:06.43 |  6:57.44 |    265993    |   297311
Range status and errors
Selected range
     Filename C:\Terradellas Domenec (1713-1751) - Furor.wav
     Peak level 98.6 %
     Range quality 99.9 %
     Copy CRC 170E9F24
     Copy OK
No errors occurred
End of status report


Скачать торрент 293.66 МБ


Download
Для скачивания .torrent файлов необходима регистрация
Сайт не распространяет и не хранит электронные версии произведений, а лишь предоставляет доступ к создаваемому пользователями каталогу ссылок на торрент-файлы, которые содержат только списки хеш-сумм

Страница 1 из 1

Ответить на тему

   Похожие торренты   Торрент 




cron