Регистрация ·  Логин: Пароль: Запомнить   · Забыли пароль?




Ответить на тему
Статистика раздачи
Размер: 274.56 МБ | Зарегистрирован: 10 мар 2018, 13:16 | .torrent скачан: 0 раз(а)
Сидеров: [ 0  | 0 байт/сек ]   Личеров: [ 0  | 0 байт/сек ]   DHT: [ 0 / 0 ]
Автор Сообщение

Модератор
Аватара пользователя

Стаж: 6 лет
Сообщения: 7870
Молдова

Сообщение 10 мар 2018, 13:16 

[Цитировать]

Классические Русские Романсы

Жанр: Vocal
Страна-производитель диска: Россия
Год издания диска: 1998
Издатель (лейбл): Manchester Files
Номер по каталогу: CDMAN 123
Дата записи: 1974-1995
Аудиокодек: APE
Тип рипа: image+.cue
Битрейт аудио: lossless
Продолжительность: 60:07
Источник: собственный рип
Наличие сканов в содержимом раздачи: да
Треклист:
Михаил Глинка (1804-1857)
01 Не пой, красавица, при мне (А.Пушкин)
02 Не искушаЙ меня без нужды, элегия (Е.Баратынский) .
03 Я здесь, Инезилья (А.Пушкин)
04 Я помню чудное мгновенье (А.Пушкин)
Александр Даргомыжский (1815-1869)
05 Я все еще его люблю (Ю.Жадовская)
06 Испанский романс (Оделась туманом Гренада) (слова неизвестного автора)
07 Юноша и дева (А.Пушкин)
08 Старый капрал, драматическая песня (П.Беранже, перевод В.Курочкина)
Модест Мусоргский (1889-1881)
09 По грибы (Л.Мей)
10 Калистрат (Н.Некрасов)
11 Блоха. Песня Мефистофеля в погребке Ауэрбаха (из "Фауста" Гете, перевод А.Струговщикова)
Александр Бородин (1853-1887)
12 Песня темного леса (А.Бородин)
Николай Римский-Корсаков (1844-1908)
13 На холмах Грузии (А.Пушкин)
14 Октава (А.Майков)
Петр Чайковский (1840-1893)
15 То было раннею весной (А.Толстой)
16 Кабы знала я (А.Толстой)
17 Средь шумного бала (А.Толстой)
18 Серенада (Ты куда летишь...) (Э.Тюркетти, пер. А.Горчаковой)
Сергей Рахманинов (1877-1947)
19 О, не грусти! (А.Апухтин)
20 Дитя! Как цветок ты прекрасна (А.Плещеев из Гейне)
21 Давно в любви (А.Фет)
22 Я жду тебя (М.Давыдова)
Исполнители:
Евгения Гороховская, меццо-сопрано (5, 6, 9, 15-22)
Ирина Головнева, фортепиано (5, 6, 9, 15-22}
Константин Плужников, тенор (1-4, 7, 10)
Елена Матусовская, фортепиано (1-4, 7)
Марина Мищук, фортепиано (10)
Николай Охотников, бас (8, 11-14,)
Юрий Серов, фортепиано (8, 11-14,)
Код:
Exact Audio Copy V0.99 prebeta 5 from 4. May 2009
Отчёт EAC об извлечении, выполненном 15. января 2011, 15:27
Various / Russian Classical Romances
Дисковод: _NEC    DVD_RW ND-4570A   Adapter: 0  ID: 1
Режим чтения                 : Достоверность
Использование точного потока : Да
Отключение кэша аудио        : Да
Использование указателей C2  : Нет
Коррекция смещения при чтении                     : 48
Способность читать области Lead-in и Lead-out     : Нет
Заполнение пропущенных сэмплов тишиной            : Да
Удаление блоков с тишиной в начале и конце        : Нет
При вычислениях CRC использовались нулевые сэмплы : Нет
Интерфейс                                         : Встроенный Win32-интерфейс для Win NT/2000
Выходной формат : Внутренние WAV-операции
Формат сэмплов  : 44.100 Гц; 16 бит; стерео
TOC извлечённого CD
     Трек |   Старт  | Длительность | Начальный сектор | Конечный сектор
    ---------------------------------------------------------------------
       1  |  0:00.32 |    1:21.25   |          32      |       6131
       2  |  1:21.57 |    3:40.08   |        6132      |      22639
       3  |  5:01.65 |    2:06.55   |       22640      |      32144
       4  |  7:08.45 |    3:20.10   |       32145      |      47154
       5  | 10:28.55 |    2:33.05   |       47155      |      58634
       6  | 13:01.60 |    1:56.65   |       58635      |      67399
       7  | 14:58.50 |    1:30.07   |       67400      |      74156
       8  | 16:28.57 |    4:30.60   |       74157      |      94466
       9  | 20:59.42 |    1:34.38   |       94467      |     101554
      10  | 22:34.05 |    5:04.65   |      101555      |     124419
      11  | 27:38.70 |    3:30.02   |      124420      |     140171
      12  | 31:08.72 |    3:11.43   |      140172      |     154539
      13  | 34:20.40 |    2:36.20   |      154540      |     166259
      14  | 36:56.60 |    2:45.00   |      166260      |     178634
      15  | 39:41.60 |    2:56.47   |      178635      |     191881
      16  | 42:38.32 |    4:38.48   |      191882      |     212779
      17  | 47:17.05 |    2:21.40   |      212780      |     223394
      18  | 49:38.45 |    1:45.62   |      223395      |     231331
      19  | 51:24.32 |    3:05.13   |      231332      |     245219
      20  | 54:29.45 |    2:11.40   |      245220      |     255084
      21  | 56:41.10 |    1:31.60   |      255085      |     261969
      22  | 58:12.70 |    1:54.37   |      261970      |     270556
Характеристики диапазона извлечения и сообщения об ошибках
Выбранный диапазон
     Имя файла C:\Documents and Settings\ШАКЛЮПАМС\Мои документы\Various - Russian Classical Romances.wav
     Пиковый уровень 89.3 %
     Качество диапазона 100.0 %
     CRC копии 069CE4A6
     Копирование... OK
Ошибок не произошло
AccurateRip: сводка
Трек  1  нет в базе данных
Трек  2  нет в базе данных
Трек  3  нет в базе данных
Трек  4  нет в базе данных
Трек  5  нет в базе данных
Трек  6  нет в базе данных
Трек  7  нет в базе данных
Трек  8  нет в базе данных
Трек  9  нет в базе данных
Трек 10  нет в базе данных
Трек 11  нет в базе данных
Трек 12  нет в базе данных
Трек 13  нет в базе данных
Трек 14  нет в базе данных
Трек 15  нет в базе данных
Трек 16  нет в базе данных
Трек 17  нет в базе данных
Трек 18  нет в базе данных
Трек 19  нет в базе данных
Трек 20  нет в базе данных
Трек 21  нет в базе данных
Трек 22  нет в базе данных
Ни одного трека нет в базе AccurateRip
Конец отчёта
Код:
REM GENRE Vocal
REM DATE 1998
REM DISCID 200E1716
REM COMMENT "ExactAudioCopy v0.99pb5"
PERFORMER "Various"
TITLE "Russian Classical Romances"
FILE "Various - Russian Classical Romances.ape" WAVE
  TRACK 01 AUDIO
    TITLE "'Ne poj, krasavica, pri mne', 1828"
    PERFORMER "GLINKA, Mikhail"
    INDEX 00 00:00:00
    INDEX 01 00:00:32
  TRACK 02 AUDIO
    TITLE "'Ne iskushaj menja bez nuzhdy, Elegija', 1825"
    PERFORMER "GLINKA, Mikhail"
    INDEX 00 01:17:24
    INDEX 01 01:21:57
  TRACK 03 AUDIO
    TITLE "'Ja zdes', Inezil'ja' , 1834"
    PERFORMER "GLINKA, Mikhail"
    INDEX 00 04:57:37
    INDEX 01 05:01:65
  TRACK 04 AUDIO
    TITLE "'Ja pomnju chudnoje mgnoven'je', 1840"
    PERFORMER "GLINKA, Mikhail"
    INDEX 00 07:04:12
    INDEX 01 07:08:45
  TRACK 05 AUDIO
    TITLE "'Ja vsjo jeshchjo jego ljublju' , 1851"
    PERFORMER "DARGOMYZHSKY, Alexander"
    INDEX 00 10:24:32
    INDEX 01 10:28:55
  TRACK 06 AUDIO
    TITLE "Spanish Romance 'Odelas' tumanom Granada'"
    PERFORMER "DARGOMYZHSKY, Alexander"
    INDEX 00 12:57:19
    INDEX 01 13:01:60
  TRACK 07 AUDIO
    TITLE "Yunosha i Deva 'Junoshu, gor'ko rydaja'"
    PERFORMER "DARGOMYZHSKY, Alexander"
    INDEX 00 14:54:46
    INDEX 01 14:58:50
  TRACK 08 AUDIO
    TITLE "Staryj Kapral, dramatic song"
    PERFORMER "DARGOMYZHSKY, Alexander"
    INDEX 00 16:24:29
    INDEX 01 16:28:57
  TRACK 09 AUDIO
    TITLE "'Po griby', 1867"
    PERFORMER "MUSSORGSKY, Modest"
    INDEX 00 20:54:63
    INDEX 01 20:59:42
  TRACK 10 AUDIO
    TITLE "'Kalistratushka', 1864, published 1883"
    PERFORMER "MUSSORGSKY, Modest"
    INDEX 00 22:29:67
    INDEX 01 22:34:05
  TRACK 11 AUDIO
    TITLE "Blokha: 'Pesnja Mefistofelja v pogrebke Auerbakha' , 1879. "
    PERFORMER "MUSSORGSKY, Modest"
    INDEX 00 27:34:21
    INDEX 01 27:38:70
  TRACK 12 AUDIO
    TITLE "'Pesnja tjomnogo lesa', 1867 published 1873"
    PERFORMER "BORODIN, Alexander"
    INDEX 00 31:04:24
    INDEX 01 31:08:72
  TRACK 13 AUDIO
    TITLE "'Na kholmakh Gruziji', Op. 3 No. 4"
    PERFORMER "RIMSKY-KORSAKOV, Nikolai Andreevich"
    INDEX 00 34:16:31
    INDEX 01 34:20:40
  TRACK 14 AUDIO
    TITLE "'Oktava', Op. 45 No. 3 (1897-9)"
    PERFORMER "RIMSKY-KORSAKOV, Nikolai Andreevich"
    INDEX 00 36:51:64
    INDEX 01 36:56:60
  TRACK 15 AUDIO
    TITLE "'To bylo ranneju vesnoj', Op. 38 No. 2"
    PERFORMER "TCHAIKOVSKY, Pyotr Ilyich"
    INDEX 00 39:36:59
    INDEX 01 39:41:60
  TRACK 16 AUDIO
    TITLE "'Kaby znala ja', Op. 47 No. 1 (1880)"
    PERFORMER "TCHAIKOVSKY, Pyotr Ilyich"
    INDEX 00 42:33:66
    INDEX 01 42:38:32
  TRACK 17 AUDIO
    TITLE "'Sred' shumnogo bala', Op. 38 No. 3 (1878)"
    PERFORMER "TCHAIKOVSKY, Pyotr Ilyich"
    INDEX 00 47:12:44
    INDEX 01 47:17:05
  TRACK 18 AUDIO
    TITLE "'Serenada', Op. 65 No. 1 (1888)"
    PERFORMER "TCHAIKOVSKY, Pyotr Ilyich"
    INDEX 00 49:34:09
    INDEX 01 49:38:45
  TRACK 19 AUDIO
    TITLE "'O, ne grusti!', Op. 14 No. 8 (1896)"
    PERFORMER "RACHMANINOV, Sergei"
    INDEX 00 51:20:28
    INDEX 01 51:24:32
  TRACK 20 AUDIO
    TITLE "'Ditja! Kak cvetok ty prekrasna', Op. 8 No. 2"
    PERFORMER "RACHMANINOV, Sergei"
    INDEX 00 54:25:07
    INDEX 01 54:29:45
  TRACK 21 AUDIO
    TITLE "'Davno v ljubvi', Op. 14 No. 3 (1896)"
    PERFORMER "RACHMANINOV, Sergei"
    INDEX 00 56:36:64
    INDEX 01 56:41:10
  TRACK 22 AUDIO
    TITLE "'Ja zhdu tebja', Op. 14 No. 1 (1896)"
    PERFORMER "RACHMANINOV, Sergei"
    INDEX 00 58:08:12
    INDEX 01 58:12:70
Доп. информация:
Звукорежиссеры:
Феликс Гурджи (5, 6, 9, 10, 15-22)
Илья Петров (8, 11-14),
Герхард Цес (1-4, 7);
Цифровой монтаж Виктора Динова;
Редактор Татьяна Маркелова;
Записи Петербургской студии грамзаписи 1974-1995 гг.


Скачать торрент 274.56 МБ


Download
Для скачивания .torrent файлов необходима регистрация
Сайт не распространяет и не хранит электронные версии произведений, а лишь предоставляет доступ к создаваемому пользователями каталогу ссылок на торрент-файлы, которые содержат только списки хеш-сумм

Страница 1 из 1

Ответить на тему

   Похожие торренты   Торрент