Регистрация ·  Логин: Пароль: Запомнить   · Забыли пароль?




Ответить на тему
Статистика раздачи
Размер: 282.99 МБ | Зарегистрирован: 10 мар 2018, 13:16 | .torrent скачан: 0 раз(а)
Сидеров: [ 1  | 0 байт/сек ]   Личеров: [ 0  | 0 байт/сек ]   DHT: [ 1 / 0 ]
Автор Сообщение

Модератор
Аватара пользователя

Стаж: 6 лет
Сообщения: 7870
Молдова

Сообщение 10 мар 2018, 13:16 

[Цитировать]


Rene Eespere - De spe
Жанр: Modern Classical
Год выпуска диска: 2009
Производитель диска: Estonia
Аудио кодек: FLAC
Тип рипа: tracks+.cue
Битрейт аудио: lossless
Продолжительность: 00:55:59
Трэклист:
01 Epigram I (for tenor and chamber orchestra)
02 Epigram IV (for soprano and chamber orchestra)
03 Epigram III (for baritone and chamber orchestra)
04 Epigram V (for soprano and chamber orchestra)
05 Epigram II (for tenor and chamber orchestra)
06 Epigram VI (for soprano and chamber orchestra)
07 Epigram VII (for baritone and chamber orchestra)
08 Invocatio (for baritone, mixed choir and chamber orchestra)
09 Mater rosae (for mixed choir and chamber orchestra)
Исполняют: François Soulet – tenor (1, 5), Jelena Voznesenskaya – soprano (2, 4, 6), Sauli Tiilikainen – baritone (3, 7), René Soom – baritone (8), Anu Lamp – narrator (6), Estonian Philharmonic Chamber Choir, Tallinn Chamber Orchestra, Risto Joost – conductor
Exact Audio Copy V0.99 prebeta 5 from 4. May 2009
EAC extraction logfile from 25. October 2009, 1:24
Rene Eespere / De Spe
Used drive : HL-DT-STDVDRAM GH20NS10 Adapter: 2 ID: 0
Read mode : Secure
Utilize accurate stream : Yes
Defeat audio cache : Yes
Make use of C2 pointers : No
Read offset correction : 667
Overread into Lead-In and Lead-Out : No
Fill up missing offset samples with silence : Yes
Delete leading and trailing silent blocks : No
Null samples used in CRC calculations : Yes
Used interface : Native Win32 interface for Win NT & 2000
Gap handling : Appended to previous track
Used output format : User Defined Encoder
Selected bitrate : 1024 kBit/s
Quality : High
Add ID3 tag : No
Command line compressor : C:\Program Files\FLAC\flac.exe
Additional command line options : -8 -V -T "ARTIST=%a" -T "TITLE=%t" -T "ALBUM=%g" -T "DATE=%y" -T "TRACKNUMBER=%n" -T "GENRE=%m" -T "COMMENT=EAC FLAC -8" %s
TOC of the extracted CD
Track | Start | Length | Start sector | End sector
---------------------------------------------------------
1 | 0:00.00 | 5:54.59 | 0 | 26608
2 | 5:54.59 | 5:47.53 | 26609 | 52686
3 | 11:42.37 | 4:52.50 | 52687 | 74636
4 | 16:35.12 | 5:26.55 | 74637 | 99141
5 | 22:01.67 | 3:41.42 | 99142 | 115758
6 | 25:43.34 | 5:08.50 | 115759 | 138908
7 | 30:52.09 | 3:21.66 | 138909 | 154049
8 | 34:14.00 | 15:01.45 | 154050 | 221669
9 | 49:15.45 | 6:43.61 | 221670 | 251955
Track 1
Filename D:\MUSIC\Composers\Eespere Rene\Eespere Rene - De Spe (2009) [FLAC] {ERP 1909}\01 - Epigram I.wav
Pre-gap length 0:00:02.00
Peak level 82.9 %
Track quality 100.0 %
Test CRC C58CA6C9
Copy CRC C58CA6C9
Track not present in AccurateRip database
Copy OK
Track 2
Filename D:\MUSIC\Composers\Eespere Rene\Eespere Rene - De Spe (2009) [FLAC] {ERP 1909}\02 - Epigram IV.wav
Pre-gap length 0:00:03.77
Peak level 99.2 %
Track quality 100.0 %
Test CRC A6F26D95
Copy CRC A6F26D95
Track not present in AccurateRip database
Copy OK
Track 3
Filename D:\MUSIC\Composers\Eespere Rene\Eespere Rene - De Spe (2009) [FLAC] {ERP 1909}\03 - Epigram III.wav
Pre-gap length 0:00:03.77
Peak level 74.8 %
Track quality 100.0 %
Test CRC B6CDFDD5
Copy CRC B6CDFDD5
Track not present in AccurateRip database
Copy OK
Track 4
Filename D:\MUSIC\Composers\Eespere Rene\Eespere Rene - De Spe (2009) [FLAC] {ERP 1909}\04 - Epigram V.wav
Pre-gap length 0:00:03.77
Peak level 99.1 %
Track quality 99.9 %
Test CRC 6E6CE2F3
Copy CRC 6E6CE2F3
Track not present in AccurateRip database
Copy OK
Track 5
Filename D:\MUSIC\Composers\Eespere Rene\Eespere Rene - De Spe (2009) [FLAC] {ERP 1909}\05 - Epigram II.wav
Pre-gap length 0:00:03.77
Peak level 98.1 %
Track quality 100.0 %
Test CRC 41D7879D
Copy CRC 41D7879D
Track not present in AccurateRip database
Copy OK
Track 6
Filename D:\MUSIC\Composers\Eespere Rene\Eespere Rene - De Spe (2009) [FLAC] {ERP 1909}\06 - Epigram VI.wav
Pre-gap length 0:00:03.77
Peak level 75.6 %
Track quality 100.0 %
Test CRC FB5D199F
Copy CRC FB5D199F
Track not present in AccurateRip database
Copy OK
Track 7
Filename D:\MUSIC\Composers\Eespere Rene\Eespere Rene - De Spe (2009) [FLAC] {ERP 1909}\07 - Epigram VII.wav
Pre-gap length 0:00:03.77
Peak level 75.1 %
Track quality 99.9 %
Test CRC 8B6BACFF
Copy CRC 8B6BACFF
Track not present in AccurateRip database
Copy OK
Track 8
Filename D:\MUSIC\Composers\Eespere Rene\Eespere Rene - De Spe (2009) [FLAC] {ERP 1909}\08 - Invocatio.wav
Pre-gap length 0:00:06.80
Peak level 99.4 %
Track quality 100.0 %
Test CRC E75D0102
Copy CRC E75D0102
Track not present in AccurateRip database
Copy OK
Track 9
Filename D:\MUSIC\Composers\Eespere Rene\Eespere Rene - De Spe (2009) [FLAC] {ERP 1909}\09 - Mater Rosae.wav
Pre-gap length 0:00:07.08
Peak level 99.3 %
Track quality 99.9 %
Test CRC 608A3B2C
Copy CRC 608A3B2C
Track not present in AccurateRip database
Copy OK
None of the tracks are present in the AccurateRip database
No errors occurred
End of status report


Скачать торрент 282.99 МБ


Download
Для скачивания .torrent файлов необходима регистрация
Сайт не распространяет и не хранит электронные версии произведений, а лишь предоставляет доступ к создаваемому пользователями каталогу ссылок на торрент-файлы, которые содержат только списки хеш-сумм

Страница 1 из 1

Ответить на тему

   Похожие торренты   Торрент