Регистрация ·  Логин: Пароль: Запомнить   · Забыли пароль?




Ответить на тему
Статистика раздачи
Размер: 252.01 МБ | Зарегистрирован: 10 мар 2018, 13:16 | .torrent скачан: 0 раз(а)
Сидеров: [ 1  | 0 байт/сек ]   Личеров: [ 0  | 0 байт/сек ]   DHT: [ 1 / 0 ]
Автор Сообщение

Модератор
Аватара пользователя

Стаж: 6 лет
Сообщения: 7870
Молдова

Сообщение 10 мар 2018, 13:16 

[Цитировать]

Olivier Messiaen - Harawi - Annika Skoglund, Carl-Axel Dominique

Жанр: Classical, 20th century, song
Страна-производитель диска: Sweden
Год издания диска: 2009
Издатель (лейбл): Dominique Records
Дата записи: 2009
Аудиокодек: FLAC
Тип рипа: image+.cue
Битрейт аудио: lossless
Продолжительность: 65:01
Источник: собственный рип
Наличие сканов в содержимом раздачи: да
Треклист:
Olivier Messiaen (1908-1992)
Harawi
Songs of Love and Death
[1] La ville qui dormait, toi
[2] Bonjour toi, colombe verte
[3] Montagnes
[4] Doundou tchil
[5] L'amour de Piroutcha
[6] Répétition planétaire
[7] Adieu
[8] Syllabes
[9] L'escalier redit, gestes du soleil
[10] Amour oiseau d'étoile
[11] Katchikatchi les étoiles
[12] Dans le noir
Исполнители:
Annika Skoglund soprano
Carl-Axel Dominique piano
Код:
Exact Audio Copy V1.0 beta 3 from 29. August 2011
EAC extraction logfile from 9. July 2012, 16:55
Annika Skoglund, Carl-Axel Dominique / Messiaen - Harawi
Used drive  : Optiarc DVD+-RW AD-5170S   Adapter: 0  ID: 1
Read mode               : Secure
Utilize accurate stream : Yes
Defeat audio cache      : Yes
Make use of C2 pointers : No
Read offset correction                      : 48
Overread into Lead-In and Lead-Out          : No
Fill up missing offset samples with silence : Yes
Delete leading and trailing silent blocks   : No
Null samples used in CRC calculations       : Yes
Used interface                              : Native Win32 interface for Win NT & 2000
Used output format              : User Defined Encoder
Selected bitrate                : 896 kBit/s
Quality                         : High
Add ID3 tag                     : Yes
Command line compressor         : C:\Program Files\Exact Audio Copy\Flac\flac.exe
Additional command line options : -V -8 %source%
TOC of the extracted CD
     Track |   Start  |  Length  | Start sector | End sector
    ---------------------------------------------------------
        1  |  0:00.00 |  2:35.60 |         0    |    11684
        2  |  2:35.60 |  4:09.33 |     11685    |    30392
        3  |  6:45.18 |  3:01.67 |     30393    |    44034
        4  |  9:47.10 |  4:38.60 |     44035    |    64944
        5  | 14:25.70 |  4:36.46 |     64945    |    85690
        6  | 19:02.41 |  6:45.48 |     85691    |   116113
        7  | 25:48.14 |  9:20.73 |    116114    |   158186
        8  | 35:09.12 |  7:06.53 |    158187    |   190189
        9  | 42:15.65 |  7:21.59 |    190190    |   223323
       10  | 49:37.49 |  4:39.47 |    223324    |   244295
       11  | 54:17.21 |  2:17.12 |    244296    |   254582
       12  | 56:34.33 |  8:24.42 |    254583    |   292424
Range status and errors
Selected range
     Filename D:\temp\pics\Messiaen - Harawi\Messiaen - Harawi.wav
     Peak level 95.7 %
     Extraction speed 5.4 X
     Range quality 99.9 %
     Test CRC A08BFE59
     Copy CRC A08BFE59
     Copy OK
No errors occurred
End of status report
==== Log checksum F13FCFA5EAD3CCDF7F715C512E0351F9A92B1C33BA1D1C779AAF6FE2C51B3311 ====


Скачать торрент 252.01 МБ


Download
Для скачивания .torrent файлов необходима регистрация
Сайт не распространяет и не хранит электронные версии произведений, а лишь предоставляет доступ к создаваемому пользователями каталогу ссылок на торрент-файлы, которые содержат только списки хеш-сумм

Страница 1 из 1

Ответить на тему

   Похожие торренты   Торрент 




cron