Регистрация ·  Логин: Пароль: Запомнить   · Забыли пароль?




Ответить на тему
Статистика раздачи
Размер: 728.36 МБ | Зарегистрирован: 10 мар 2018, 13:16 | .torrent скачан: 0 раз(а)
Сидеров: [ 0  | 0 байт/сек ]   Личеров: [ 0  | 0 байт/сек ]   DHT: [ 0 / 0 ]
Автор Сообщение

Модератор
Аватара пользователя

Стаж: 6 лет
Сообщения: 7870
Молдова

Сообщение 10 мар 2018, 13:16 

[Цитировать]

George Frideric Handel, John Christopher Smith: Tobit / Frankfurt Baroque Orchestra, Joachim Carlos Martini

Жанр: Baroque oratorio pasticcio
Год выпуска диска: 2007
Производитель диска: Label Naxos ; Made in the EU
Аудио кодек: FLAC
Тип рипа: tracks+.cue
Битрейт аудио: lossless
Продолжительность: Total Playing Time: 02:36:22
Трэклист:
Disc: 1
1. Tobit, oratorio (after Handel): Ouverture
2. Tobit, oratorio (after Handel): Part 1. Scene 1. Recitative. Happy Assyria
3. Tobit, oratorio (after Handel): Part 1. Scene 1. Chorus. Hear us, O Baal
4. Tobit, oratorio (after Handel): Part 1. Scene 2. Recitative. How Soon Eclips'd is human joy
5. Tobit, oratorio (after Handel): Part 1. Scene 2. Solo & Chorus. O Lord, whom we adore / Hear from thy mercies seat
6. Tobit, oratorio (after Handel): Part 1. Scene 3. Recitative. The Lord hath heard my pray'r
7. Tobit, oratorio (after Handel): Part 1. Scene 3. Air. Will God, whose mercies ever flow
8. Tobit, oratorio (after Handel): Part 1. Scene 3. Recitative. But Say, my Rightous Lord
9. Tobit, oratorio (after Handel): Part 1. Scene 3. Duet. To Steal a Grave
10. Tobit, oratorio (after Handel): Part 1. Scene 3. Recitative. Your Pardon
11. Tobit, oratorio (after Handel): Part 1. Scene 3. Air. Boistrous Winds and Billows rolling
12. Tobit, oratorio (after Handel): Part 1. Scene 3. Chorus. Tyrants may a while presume
13. Tobit, oratorio (after Handel): Part 1. Scene 4. Sinfonia
14. Tobit, oratorio (after Handel): Part 1. Scene 4. Accompagnato. Ah, Wretched Sarah!
15. Tobit, oratorio (after Handel): Part 1. Scene 4. Air. Paid be my Adoration
16. Tobit, oratorio (after Handel): Part 1. Scene 4. Recitative. Be comforted, My Daughter
17. Tobit, oratorio (after Handel): Part 1. Scene 4. Air. The Lord Sends his Thunders
18. Tobit, oratorio (after Handel): Part 1. Scene 4. Chorus. All Pow'r in Heav'n above or Earth beneath
19. Tobit, oratorio (after Handel): Part 2. Scene 1. Sinfonia
20. Tobit, oratorio (after Handel): Part 2. Scene 1. Accompagnato. Alas! To what Variety of Ills
21. Tobit, oratorio (after Handel): Part 2. Scene 1. Air. Happy in thee, my Son
22. Tobit, oratorio (after Handel): Part 2. Scene 2. Recitative. Happy in thee, my Son
23. Tobit, oratorio (after Handel): Part 2. Scene 2. Air. Descend, kind Pity
24. Tobit, oratorio (after Handel): Part 2. Scene 2. Chorus. Impartial heav'n
25. Tobit, oratorio (after Handel): Part 2. Scene 3. Recitative. If Blindness Scorn, Contempt and Misery
26. Tobit, oratorio (after Handel): Part 2. Scene 3. Chorus. O Baal, Monarch of the Skies!
27. Tobit, oratorio (after Handel): Part 2. Scene 3. Ritornello
28. Tobit, oratorio (after Handel): Part 2. Scene 4. Recitative. Pain'd as I am
29. Tobit, oratorio (after Handel): Part 2. Scene 4. Air. Thy pleasing Face
30. Tobit, oratorio (after Handel): Part 2. Scene 4. Recitative. O thou bright sun!
31. Tobit, oratorio (after Handel): Part 2. Scene 4. Air. With darkness Deep, as is my woe
32. Tobit, oratorio (after Handel): Part 2. Scene 5. Sinfonia
33. Tobit, oratorio (after Handel): Part 2. Scene 5. Recitative. What caution is too great
Disc: 2
1. Tobit, oratorio (after Handel): Part 2. Scene 5. Air. Thou, God most high
2. Tobit, oratorio (after Handel): Part 2. Scene 5. Duet. Cease thy Anguish
3. Tobit, oratorio (after Handel): Part 2. Scene 5. Chorus. The Clouded Scene begins to clear
4. Tobit, oratorio (after Handel): Part 2. Scene 6. Sinfonia
5. Tobit, oratorio (after Handel): Part 2. Scene 6. Recitative. How happy, Daughter
6. Tobit, oratorio (after Handel): Part 2. Scene 6. Air. To nobler Joys aspiring
7. Tobit, oratorio (after Handel): Part 2. Scene 7. Recitative. O Azarias, I must freely own
8. Tobit, oratorio (after Handel): Part 2. Scene 8. Recitative. The grateful Tribute of our thanks
9. Tobit, oratorio (after Handel): Part 2. Scene 8. Air. Let Songs of varied measure
10. Tobit, oratorio (after Handel): Part 2. Scene 8. Chorus. Now Love, that everlasting Joy
11. Tobit, oratorio (after Handel): Part 2. Scene 8. Chorus. Happy, happy shall they be
12. Tobit, oratorio (after Handel): Part 3. Scene 1. Sinfonia
13. Tobit, oratorio (after Handel): Part 3. Scene 1. Accompagnato. Still am I persecuted
14. Tobit, oratorio (after Handel): Part 3. Scene 1. Air. Cease your Pride, deluded mortals
15. Tobit, oratorio (after Handel): Part 3. Scene 1. Chorus. Tremble, Guilt, for Thou Shalt find
16. Tobit, oratorio (after Handel): Part 3. Scene 2. Recitative. Hail, Tobit!
17. Tobit, oratorio (after Handel): Part 3. Scene 2. Accompagnato. Henceforth through all the changing Scenes of Life
18. Tobit, oratorio (after Handel): Part 3. Scene 2. Air. My Son, how happy in this thy Sweet Return
19. Tobit, oratorio (after Handel): Part 3. Scene 2. Chorus. Let none Despair
20. Tobit, oratorio (after Handel): Part 3. Scene 3. Accompagnato and Recitative. Blest be the God of Heav'n
21. Tobit, oratorio (after Handel): Part 3. Scene 3. Air. May true Joy
22. Tobit, oratorio (after Handel): Part 3. Scene 3. Terzetto. More chearfull appearing
23. Tobit, oratorio (after Handel): Part 3. Scene 3. Air. Watchful angels
24. Tobit, oratorio (after Handel): Part 3. Scene 3. Recitative. O King of Kings
25. Tobit, oratorio (after Handel): Part 3. Scene 3. Chorus. Swift our numbers
26. Tobit, oratorio (after Handel): Part 3. Scene 3. Recitative. 'Tis well
27. Tobit, oratorio (after Handel): Part 3. Scene 3. Accompagnato. O Nineveh!
28. Tobit, oratorio (after Handel): Part 3. Scene 3. Air. In Jehovah's awful sight
29. Tobit, oratorio (after Handel): Part 3. Scene 3. Symphony
30. Tobit, oratorio (after Handel): Part 3. Scene 3. Recitative. Saw ye the radiant Streams of Light
31. Tobit, oratorio (after Handel): Part 3. Scene 3. Chorus and Solo. Ye servants of th' eternal King
Доп. информация:
George Frideric Handel (1685 - 1759)
John Christopher Smith (1712 - 1795)
Tobit (1764)
Oratorio in Three Parts
Maya Boog (Soprano)
Linda Perillo (Soprano)
Barbara Hannigan (Soprano)
Alison Browner (Alto)
Knut Schoch (Tenor)
Stephan MacLeod (Bass)
Junge Kantorei
Frankfurt Baroque Orchestra
Joachim Carlos Martini, Conductor
Rec. live, Koster Eberbach, Rheingau, Germany, 3 June 2001
Release Date: 2007-02-27
EAC CD1
EAC extraction logfile from 27. September 2007, 1:22 for CD
Frankfurt Baroque Orchestra, Junge Kantorei / G.F.Handel - Tobit (Oratorio in Three Parts) CD 1of2
Used drive : HL-DT-STDVDRAM GSA-4167B Adapter: 1 ID: 1
Read mode : Secure with NO C2, accurate stream, disable cache
Read offset correction : 667
Overread into Lead-In and Lead-Out : No
Used output format : C:\Program Files\FLAC\flac.exe (User Defined Encoder)
320 kBit/s
Additional command line options : -8 -V -T "ARTIST=%a" -T "TITLE=%t" -T "ALBUM=%g" -T "DATE=%y" -T "TRACKNUMBER=%n" -T "GENRE=%m" -T "COMMENT=EAC Flac 1.1.4 -8" %s
Other options :
Fill up missing offset samples with silence : Yes
Delete leading and trailing silent blocks : No
Installed external ASPI interface
Track 1
Filename D:\stayko\George Frideric Handel - Tobit Oratorio (2007) [FLAC] (2 CDs)\Disc 1of2\01 - Ouverture.wav
Pre-gap length 0:00:02.00
Peak level 26.8 %
Track quality 100.0 %
Test CRC 398B4222
Copy CRC 398B4222
Copy OK
Track 2
Filename D:\stayko\George Frideric Handel - Tobit Oratorio (2007) [FLAC] (2 CDs)\Disc 1of2\02 - Part 1 - Happy Assyria.wav
Peak level 35.1 %
Track quality 100.0 %
Test CRC 1DDDD7DA
Copy CRC 1DDDD7DA
Copy OK
Track 3
Filename D:\stayko\George Frideric Handel - Tobit Oratorio (2007) [FLAC] (2 CDs)\Disc 1of2\03 - Part 1 - Hear us, o Baal.wav
Peak level 67.8 %
Track quality 100.0 %
Test CRC 52112F56
Copy CRC 52112F56
Copy OK
Track 4
Filename D:\stayko\George Frideric Handel - Tobit Oratorio (2007) [FLAC] (2 CDs)\Disc 1of2\04 - Part 1 - How soon eclips'd is human joy.wav
Peak level 22.8 %
Track quality 100.0 %
Test CRC BB6D32EF
Copy CRC BB6D32EF
Copy OK
Track 5
Filename D:\stayko\George Frideric Handel - Tobit Oratorio (2007) [FLAC] (2 CDs)\Disc 1of2\05 - Part 1 - Hear from thy mercies seat.wav
Peak level 55.8 %
Track quality 100.0 %
Test CRC 2C50C5BB
Copy CRC 2C50C5BB
Copy OK
Track 6
Filename D:\stayko\George Frideric Handel - Tobit Oratorio (2007) [FLAC] (2 CDs)\Disc 1of2\06 - Part 1 - The Lord hath heard my pray'r.wav
Peak level 38.6 %
Track quality 100.0 %
Test CRC 0A4161D8
Copy CRC 0A4161D8
Copy OK
Track 7
Filename D:\stayko\George Frideric Handel - Tobit Oratorio (2007) [FLAC] (2 CDs)\Disc 1of2\07 - Part 1 - Will God, whose mercies ever flow.wav
Peak level 69.8 %
Track quality 100.0 %
Test CRC D60D49AC
Copy CRC D60D49AC
Copy OK
Track 8
Filename D:\stayko\George Frideric Handel - Tobit Oratorio (2007) [FLAC] (2 CDs)\Disc 1of2\08 - Part 1 - But say, my rightous Lord.wav
Peak level 35.0 %
Track quality 99.7 %
Test CRC 25FA1693
Copy CRC 25FA1693
Copy OK
Track 9
Filename D:\stayko\George Frideric Handel - Tobit Oratorio (2007) [FLAC] (2 CDs)\Disc 1of2\09 - Part 1 - To steal a grave.wav
Peak level 60.3 %
Track quality 100.0 %
Test CRC BAA2CFEC
Copy CRC BAA2CFEC
Copy OK
Track 10
Filename D:\stayko\George Frideric Handel - Tobit Oratorio (2007) [FLAC] (2 CDs)\Disc 1of2\10 - Part 1 - Your pardon.wav
Peak level 22.5 %
Track quality 100.0 %
Test CRC 3AD14DF1
Copy CRC 3AD14DF1
Copy OK
Track 11
Filename D:\stayko\George Frideric Handel - Tobit Oratorio (2007) [FLAC] (2 CDs)\Disc 1of2\11 - Part 1 - Boistrous winds and billows rolling.wav
Peak level 62.1 %
Track quality 99.9 %
Test CRC 6688622E
Copy CRC 6688622E
Copy OK
Track 12
Filename D:\stayko\George Frideric Handel - Tobit Oratorio (2007) [FLAC] (2 CDs)\Disc 1of2\12 - Part 1 - Tyrants may a while presume.wav
Peak level 65.6 %
Track quality 99.9 %
Test CRC E4B04118
Copy CRC E4B04118
Copy OK
Track 13
Filename D:\stayko\George Frideric Handel - Tobit Oratorio (2007) [FLAC] (2 CDs)\Disc 1of2\13 - Part 1 - Sinfonia.wav
Peak level 26.7 %
Track quality 100.0 %
Test CRC 9A91A735
Copy CRC 9A91A735
Copy OK
Track 14
Filename D:\stayko\George Frideric Handel - Tobit Oratorio (2007) [FLAC] (2 CDs)\Disc 1of2\14 - Part 1 - Ah, wretched Sarah.wav
Peak level 62.3 %
Track quality 100.0 %
Test CRC 1D359340
Copy CRC 1D359340
Copy OK
Track 15
Filename D:\stayko\George Frideric Handel - Tobit Oratorio (2007) [FLAC] (2 CDs)\Disc 1of2\15 - Part 1 - Paid be my adoration.wav
Peak level 54.9 %
Track quality 100.0 %
Test CRC 703C391B
Copy CRC 703C391B
Copy OK
Track 16
Filename D:\stayko\George Frideric Handel - Tobit Oratorio (2007) [FLAC] (2 CDs)\Disc 1of2\16 - Part 1 - Be comforted, my daughter.wav
Peak level 36.6 %
Track quality 100.0 %
Test CRC D197E090
Copy CRC D197E090
Copy OK
Track 17
Filename D:\stayko\George Frideric Handel - Tobit Oratorio (2007) [FLAC] (2 CDs)\Disc 1of2\17 - Part 1 - The Lord sends his thunders.wav
Peak level 87.5 %
Track quality 100.0 %
Test CRC 53A1E437
Copy CRC 53A1E437
Copy OK
Track 18
Filename D:\stayko\George Frideric Handel - Tobit Oratorio (2007) [FLAC] (2 CDs)\Disc 1of2\18 - Part 1 - All pow'r in heav'n above or earth beneath.wav
Peak level 62.4 %
Track quality 100.0 %
Test CRC 79A88700
Copy CRC 79A88700
Copy OK
Track 19
Filename D:\stayko\George Frideric Handel - Tobit Oratorio (2007) [FLAC] (2 CDs)\Disc 1of2\19 - Part 2 - Sinfonia.wav
Pre-gap length 0:00:05.70
Peak level 28.4 %
Track quality 99.7 %
Test CRC 59323FDA
Copy CRC 59323FDA
Copy OK
Track 20
Filename D:\stayko\George Frideric Handel - Tobit Oratorio (2007) [FLAC] (2 CDs)\Disc 1of2\20 - Part 2 - Alas. To what variety of ills.wav
Peak level 19.4 %
Track quality 100.0 %
Test CRC 464F8D56
Copy CRC 464F8D56
Copy OK
Track 21
Filename D:\stayko\George Frideric Handel - Tobit Oratorio (2007) [FLAC] (2 CDs)\Disc 1of2\21 - Part 2 - In great Jehovah.wav
Peak level 24.2 %
Track quality 100.0 %
Test CRC C9A5F815
Copy CRC C9A5F815
Copy OK
Track 22
Filename D:\stayko\George Frideric Handel - Tobit Oratorio (2007) [FLAC] (2 CDs)\Disc 1of2\22 - Part 2 - Happy in thee, my son.wav
Peak level 26.8 %
Track quality 100.0 %
Test CRC BACE6103
Copy CRC BACE6103
Copy OK
Track 23
Filename D:\stayko\George Frideric Handel - Tobit Oratorio (2007) [FLAC] (2 CDs)\Disc 1of2\23 - Part 2 - Descend kind pity.wav
Pre-gap length 0:00:01.70
Peak level 64.0 %
Track quality 100.0 %
Test CRC 3C41F22F
Copy CRC 3C41F22F
Copy OK
Track 24
Filename D:\stayko\George Frideric Handel - Tobit Oratorio (2007) [FLAC] (2 CDs)\Disc 1of2\24 - Part 2 - Impartial heav'n.wav
Peak level 62.3 %
Track quality 100.0 %
Test CRC A18FBB8A
Copy CRC A18FBB8A
Copy OK
Track 25
Filename D:\stayko\George Frideric Handel - Tobit Oratorio (2007) [FLAC] (2 CDs)\Disc 1of2\25 - Part 2 - If blindness, scorn, contempt and misery.wav
Peak level 40.8 %
Track quality 99.7 %
Test CRC 5314FF82
Copy CRC 5314FF82
Copy OK
Track 26
Filename D:\stayko\George Frideric Handel - Tobit Oratorio (2007) [FLAC] (2 CDs)\Disc 1of2\26 - Part 2 - O Baal.wav
Peak level 98.9 %
Track quality 100.0 %
Test CRC 5FDFE715
Copy CRC 5FDFE715
Copy OK
Track 27
Filename D:\stayko\George Frideric Handel - Tobit Oratorio (2007) [FLAC] (2 CDs)\Disc 1of2\27 - Part 2 - Ritornello.wav
Peak level 17.2 %
Track quality 100.0 %
Test CRC FB7B3AD9
Copy CRC FB7B3AD9
Copy OK
Track 28
Filename D:\stayko\George Frideric Handel - Tobit Oratorio (2007) [FLAC] (2 CDs)\Disc 1of2\28 - Part 2 - Pain'd as I am.wav
Peak level 28.7 %
Track quality 100.0 %
Test CRC 277DE4AB
Copy CRC 277DE4AB
Copy OK
Track 29
Filename D:\stayko\George Frideric Handel - Tobit Oratorio (2007) [FLAC] (2 CDs)\Disc 1of2\29 - Part 2 - Thy pleasing face.wav
Peak level 59.8 %
Track quality 100.0 %
Test CRC 0729BBD2
Copy CRC 0729BBD2
Copy OK
Track 30
Filename D:\stayko\George Frideric Handel - Tobit Oratorio (2007) [FLAC] (2 CDs)\Disc 1of2\30 - Part 2 - O, though bright sun.wav
Peak level 31.1 %
Track quality 100.0 %
Test CRC 95236FE9
Copy CRC 95236FE9
Copy OK
Track 31
Filename D:\stayko\George Frideric Handel - Tobit Oratorio (2007) [FLAC] (2 CDs)\Disc 1of2\31 - Part 2 - With darkness deep, as is my woe.wav
Peak level 30.9 %
Track quality 100.0 %
Test CRC 397FB6E3
Copy CRC 397FB6E3
Copy OK
Track 32
Filename D:\stayko\George Frideric Handel - Tobit Oratorio (2007) [FLAC] (2 CDs)\Disc 1of2\32 - Part 2 - Sinfonia.wav
Peak level 29.6 %
Track quality 100.0 %
Test CRC E0ED2E63
Copy CRC E0ED2E63
Copy OK
Track 33
Filename D:\stayko\George Frideric Handel - Tobit Oratorio (2007) [FLAC] (2 CDs)\Disc 1of2\33 - Part 2 - What caution is too great.wav
Peak level 23.1 %
Track quality 100.0 %
Test CRC CA789506
Copy CRC CA789506
Copy OK
No errors occured
End of status report
EAC CD2
EAC extraction logfile from 27. September 2007, 11:33 for CD
Frankfurt Baroque Orchestra, Junge Kantorei / G.F.Handel - Tobit (Oratorio in Three Parts) CD 2of2
Used drive : HL-DT-STDVDRAM GSA-4167B Adapter: 1 ID: 1
Read mode : Secure with NO C2, accurate stream, disable cache
Read offset correction : 667
Overread into Lead-In and Lead-Out : No
Used output format : C:\Program Files\FLAC\flac.exe (User Defined Encoder)
320 kBit/s
Additional command line options : -8 -V -T "ARTIST=%a" -T "TITLE=%t" -T "ALBUM=%g" -T "DATE=%y" -T "TRACKNUMBER=%n" -T "GENRE=%m" -T "COMMENT=EAC Flac 1.1.4 -8" %s
Other options :
Fill up missing offset samples with silence : Yes
Delete leading and trailing silent blocks : No
Installed external ASPI interface
Track 1
Filename D:\stayko\George Frideric Handel - Tobit Oratorio (2007) [FLAC] (2 CDs)\Disc 2of2\01 - Part 2 - Though, God most high.wav
Pre-gap length 0:00:02.00
Peak level 37.2 %
Track quality 100.0 %
Test CRC 51DFAC78
Copy CRC 51DFAC78
Copy OK
Track 2
Filename D:\stayko\George Frideric Handel - Tobit Oratorio (2007) [FLAC] (2 CDs)\Disc 2of2\02 - Part 2 - Cease thy anguish.wav
Peak level 46.6 %
Track quality 100.0 %
Test CRC D94AC967
Copy CRC D94AC967
Copy OK
Track 3
Filename D:\stayko\George Frideric Handel - Tobit Oratorio (2007) [FLAC] (2 CDs)\Disc 2of2\03 - Part 2 - The clouded scene begins to clear.wav
Peak level 78.3 %
Track quality 100.0 %
Test CRC 542E7252
Copy CRC 542E7252
Copy OK
Track 4
Filename D:\stayko\George Frideric Handel - Tobit Oratorio (2007) [FLAC] (2 CDs)\Disc 2of2\04 - Part 2 - Sinfonia - Symphony.wav
Peak level 27.4 %
Track quality 100.0 %
Test CRC 356DBAFC
Copy CRC 356DBAFC
Copy OK
Track 5
Filename D:\stayko\George Frideric Handel - Tobit Oratorio (2007) [FLAC] (2 CDs)\Disc 2of2\05 - Part 2 - How happy, daughter.wav
Peak level 24.4 %
Track quality 100.0 %
Test CRC B886A5BE
Copy CRC B886A5BE
Copy OK
Track 6
Filename D:\stayko\George Frideric Handel - Tobit Oratorio (2007) [FLAC] (2 CDs)\Disc 2of2\06 - Part 2 - No nobler joys aspiring.wav
Peak level 86.6 %
Track quality 100.0 %
Test CRC 5B94E854
Copy CRC 5B94E854
Copy OK
Track 7
Filename D:\stayko\George Frideric Handel - Tobit Oratorio (2007) [FLAC] (2 CDs)\Disc 2of2\07 - Part 2 - O Azarias, I must freely own.wav
Peak level 36.2 %
Track quality 99.7 %
Test CRC DC0B9861
Copy CRC DC0B9861
Copy OK
Track 8
Filename D:\stayko\George Frideric Handel - Tobit Oratorio (2007) [FLAC] (2 CDs)\Disc 2of2\08 - Part 2 - The gratefull tribute of our thanks.wav
Peak level 50.3 %
Track quality 99.4 %
Test CRC 6864D463
Copy CRC 6864D463
Copy OK
Track 9
Filename D:\stayko\George Frideric Handel - Tobit Oratorio (2007) [FLAC] (2 CDs)\Disc 2of2\09 - Part 2 - Let songs of varied measure.wav
Peak level 93.7 %
Track quality 99.9 %
Test CRC ADBCCC04
Copy CRC ADBCCC04
Copy OK
Track 10
Filename D:\stayko\George Frideric Handel - Tobit Oratorio (2007) [FLAC] (2 CDs)\Disc 2of2\10 - Part 2 - Now love, that everlasting joy.wav
Peak level 70.6 %
Track quality 100.0 %
Test CRC ADF9B8ED
Copy CRC ADF9B8ED
Copy OK
Track 11
Filename D:\stayko\George Frideric Handel - Tobit Oratorio (2007) [FLAC] (2 CDs)\Disc 2of2\11 - Part 2 - Happy, happy shall they be.wav
Peak level 100.0 %
Track quality 99.9 %
Test CRC 0EA7D877
Copy CRC 0EA7D877
Copy OK
Track 12
Filename D:\stayko\George Frideric Handel - Tobit Oratorio (2007) [FLAC] (2 CDs)\Disc 2of2\12 - Part 3 - Sinfonia.wav
Peak level 36.7 %
Track quality 100.0 %
Test CRC 309347E0
Copy CRC 309347E0
Copy OK
Track 13
Filename D:\stayko\George Frideric Handel - Tobit Oratorio (2007) [FLAC] (2 CDs)\Disc 2of2\13 - Part 3 - Still am I persecuted.wav
Peak level 41.5 %
Track quality 100.0 %
Test CRC 06887B89
Copy CRC 06887B89
Copy OK
Track 14
Filename D:\stayko\George Frideric Handel - Tobit Oratorio (2007) [FLAC] (2 CDs)\Disc 2of2\14 - Part 3 - Cease your pride, deluded mortals.wav
Peak level 40.1 %
Track quality 100.0 %
Test CRC D54BCBBF
Copy CRC D54BCBBF
Copy OK
Track 15
Filename D:\stayko\George Frideric Handel - Tobit Oratorio (2007) [FLAC] (2 CDs)\Disc 2of2\15 - Part 3 - Tremble, guilt, for though shalt find.wav
Peak level 71.2 %
Track quality 100.0 %
Test CRC D0E45145
Copy CRC D0E45145
Copy OK
Track 16
Filename D:\stayko\George Frideric Handel - Tobit Oratorio (2007) [FLAC] (2 CDs)\Disc 2of2\16 - Part 3 - Sinfonia.wav
Peak level 28.4 %
Track quality 100.0 %
Test CRC 95DFB98C
Copy CRC 95DFB98C
Copy OK
Track 17
Filename D:\stayko\George Frideric Handel - Tobit Oratorio (2007) [FLAC] (2 CDs)\Disc 2of2\17 - Part 3 - Hail, Tobit.wav
Peak level 26.7 %
Track quality 99.3 %
Test CRC 63B82C03
Copy CRC 63B82C03
Copy OK
Track 18
Filename D:\stayko\George Frideric Handel - Tobit Oratorio (2007) [FLAC] (2 CDs)\Disc 2of2\18 - Part 3 - Henceforth through all changing scenes of life.wav
Peak level 38.9 %
Track quality 100.0 %
Test CRC 208672BA
Copy CRC 208672BA
Copy OK
Track 19
Filename D:\stayko\George Frideric Handel - Tobit Oratorio (2007) [FLAC] (2 CDs)\Disc 2of2\19 - Part 3 - Ma son, how happy in thy sweet return.wav
Peak level 68.8 %
Track quality 99.9 %
Test CRC BE256806
Copy CRC BE256806
Copy OK
Track 20
Filename D:\stayko\George Frideric Handel - Tobit Oratorio (2007) [FLAC] (2 CDs)\Disc 2of2\20 - Part 3 - Let none despair.wav
Peak level 61.0 %
Track quality 100.0 %
Test CRC CAB7A073
Copy CRC CAB7A073
Copy OK
Track 21
Filename D:\stayko\George Frideric Handel - Tobit Oratorio (2007) [FLAC] (2 CDs)\Disc 2of2\21 - Part 3 - Blest be the God of Heav'n.wav
Peak level 30.2 %
Track quality 99.8 %
Test CRC 4023EBA3
Copy CRC 4023EBA3
Copy OK
Track 22
Filename D:\stayko\George Frideric Handel - Tobit Oratorio (2007) [FLAC] (2 CDs)\Disc 2of2\22 - Part 3 - May true joy.wav
Peak level 60.2 %
Track quality 100.0 %
Test CRC 6F4E8EC1
Copy CRC 6F4E8EC1
Copy OK
Track 23
Filename D:\stayko\George Frideric Handel - Tobit Oratorio (2007) [FLAC] (2 CDs)\Disc 2of2\23 - Part 3 - More cheerful appearing.wav
Peak level 72.7 %
Track quality 99.9 %
Test CRC 4E666656
Copy CRC 4E666656
Copy OK
Track 24
Filename D:\stayko\George Frideric Handel - Tobit Oratorio (2007) [FLAC] (2 CDs)\Disc 2of2\24 - Part 3 - Watchfull angels.wav
Peak level 47.7 %
Track quality 100.0 %
Test CRC CCACA0FD
Copy CRC CCACA0FD
Copy OK
Track 25
Filename D:\stayko\George Frideric Handel - Tobit Oratorio (2007) [FLAC] (2 CDs)\Disc 2of2\25 - Part 3 - O King of Kings.wav
Peak level 52.1 %
Track quality 100.0 %
Test CRC 6C22D91B
Copy CRC 6C22D91B
Copy OK
Track 26
Filename D:\stayko\George Frideric Handel - Tobit Oratorio (2007) [FLAC] (2 CDs)\Disc 2of2\26 - Part 3 - Allelujah.wav
Peak level 73.1 %
Track quality 100.0 %
Test CRC 7E703C0E
Copy CRC 7E703C0E
Copy OK
Track 27
Filename D:\stayko\George Frideric Handel - Tobit Oratorio (2007) [FLAC] (2 CDs)\Disc 2of2\27 - Part 3 - Swift our numbers.wav
Peak level 100.0 %
Track quality 100.0 %
Test CRC 241C3FC2
Copy CRC 241C3FC2
Copy OK
Track 28
Filename D:\stayko\George Frideric Handel - Tobit Oratorio (2007) [FLAC] (2 CDs)\Disc 2of2\28 - Part 3 - Tis well.wav
Peak level 21.0 %
Track quality 99.4 %
Test CRC 895D1657
Copy CRC 895D1657
Copy OK
Track 29
Filename D:\stayko\George Frideric Handel - Tobit Oratorio (2007) [FLAC] (2 CDs)\Disc 2of2\29 - Part 3 - O Niniveh.wav
Peak level 33.0 %
Track quality 100.0 %
Test CRC CBAC7F7F
Copy CRC CBAC7F7F
Copy OK
Track 30
Filename D:\stayko\George Frideric Handel - Tobit Oratorio (2007) [FLAC] (2 CDs)\Disc 2of2\30 - Part 3 - In Jehovah's awful sight.wav
Peak level 45.0 %
Track quality 99.9 %
Test CRC 41464BDE
Copy CRC 41464BDE
Copy OK
Track 31
Filename D:\stayko\George Frideric Handel - Tobit Oratorio (2007) [FLAC] (2 CDs)\Disc 2of2\31 - Part 3 - Symphony.wav
Peak level 28.1 %
Track quality 99.9 %
Test CRC 4CCE88F6
Copy CRC 4CCE88F6
Copy OK
Track 32
Filename D:\stayko\George Frideric Handel - Tobit Oratorio (2007) [FLAC] (2 CDs)\Disc 2of2\32 - Part 3 - Saw ye the radiant streams of light.wav
Peak level 25.6 %
Track quality 100.0 %
Test CRC 73390C0A
Copy CRC 73390C0A
Copy OK
Track 33
Filename D:\stayko\George Frideric Handel - Tobit Oratorio (2007) [FLAC] (2 CDs)\Disc 2of2\33 - Part 3 - Ye servants of th'eternal King.wav
Peak level 77.1 %
Track quality 100.0 %
Test CRC C93C0687
Copy CRC C93C0687
Copy OK
No errors occured
End of status report
Ку CD1
REM GENRE Classical
REM DATE 2007
REM DISCID 0611E321
REM COMMENT "ExactAudioCopy v0.95b4"
PERFORMER "Frankfurt Baroque Orchestra, Junge Kantorei"
TITLE "G.F.Handel - Tobit (Oratorio in Three Parts) CD 1of2"
FILE "01 - Ouverture.wav" WAVE
TRACK 01 AUDIO
TITLE "Ouverture"
PERFORMER "Frankfurt Baroque Orchestra, Junge Kantorei"
INDEX 01 00:00:00
FILE "02 - Part 1 - Happy Assyria.wav" WAVE
TRACK 02 AUDIO
TITLE "Part 1 - Happy Assyria"
PERFORMER "Frankfurt Baroque Orchestra, Junge Kantorei"
INDEX 01 00:00:00
FILE "03 - Part 1 - Hear us, o Baal.wav" WAVE
TRACK 03 AUDIO
TITLE "Part 1 - Hear us, o Baal"
PERFORMER "Frankfurt Baroque Orchestra, Junge Kantorei"
INDEX 01 00:00:00
FILE "04 - Part 1 - How soon eclips'd is human joy.wav" WAVE
TRACK 04 AUDIO
TITLE "Part 1 - How soon eclips'd is human joy"
PERFORMER "Frankfurt Baroque Orchestra, Junge Kantorei"
INDEX 01 00:00:00
FILE "05 - Part 1 - Hear from thy mercies seat.wav" WAVE
TRACK 05 AUDIO
TITLE "Part 1 - Hear from thy mercies seat"
PERFORMER "Frankfurt Baroque Orchestra, Junge Kantorei"
INDEX 01 00:00:00
FILE "06 - Part 1 - The Lord hath heard my pray'r.wav" WAVE
TRACK 06 AUDIO
TITLE "Part 1 - The Lord hath heard my pray'r"
PERFORMER "Frankfurt Baroque Orchestra, Junge Kantorei"
INDEX 01 00:00:00
FILE "07 - Part 1 - Will God, whose mercies ever flow.wav" WAVE
TRACK 07 AUDIO
TITLE "Part 1 - Will God, whose mercies ever flow"
PERFORMER "Frankfurt Baroque Orchestra, Junge Kantorei"
INDEX 01 00:00:00
FILE "08 - Part 1 - But say, my rightous Lord.wav" WAVE
TRACK 08 AUDIO
TITLE "Part 1 - But say, my rightous Lord"
PERFORMER "Frankfurt Baroque Orchestra, Junge Kantorei"
INDEX 01 00:00:00
FILE "09 - Part 1 - To steal a grave.wav" WAVE
TRACK 09 AUDIO
TITLE "Part 1 - To steal a grave"
PERFORMER "Frankfurt Baroque Orchestra, Junge Kantorei"
INDEX 01 00:00:00
FILE "10 - Part 1 - Your pardon.wav" WAVE
TRACK 10 AUDIO
TITLE "Part 1 - Your pardon"
PERFORMER "Frankfurt Baroque Orchestra, Junge Kantorei"
INDEX 01 00:00:00
FILE "11 - Part 1 - Boistrous winds and billows rolling.wav" WAVE
TRACK 11 AUDIO
TITLE "Part 1 - Boistrous winds and billows rolling"
PERFORMER "Frankfurt Baroque Orchestra, Junge Kantorei"
INDEX 01 00:00:00
FILE "12 - Part 1 - Tyrants may a while presume.wav" WAVE
TRACK 12 AUDIO
TITLE "Part 1 - Tyrants may a while presume"
PERFORMER "Frankfurt Baroque Orchestra, Junge Kantorei"
INDEX 01 00:00:00
FILE "13 - Part 1 - Sinfonia.wav" WAVE
TRACK 13 AUDIO
TITLE "Part 1 - Sinfonia"
PERFORMER "Frankfurt Baroque Orchestra, Junge Kantorei"
INDEX 01 00:00:00
FILE "14 - Part 1 - Ah, wretched Sarah.wav" WAVE
TRACK 14 AUDIO
TITLE "Part 1 - Ah, wretched Sarah"
PERFORMER "Frankfurt Baroque Orchestra, Junge Kantorei"
INDEX 01 00:00:00
FILE "15 - Part 1 - Paid be my adoration.wav" WAVE
TRACK 15 AUDIO
TITLE "Part 1 - Paid be my adoration"
PERFORMER "Frankfurt Baroque Orchestra, Junge Kantorei"
INDEX 01 00:00:00
FILE "16 - Part 1 - Be comforted, my daughter.wav" WAVE
TRACK 16 AUDIO
TITLE "Part 1 - Be comforted, my daughter"
PERFORMER "Frankfurt Baroque Orchestra, Junge Kantorei"
INDEX 01 00:00:00
FILE "17 - Part 1 - The Lord sends his thunders.wav" WAVE
TRACK 17 AUDIO
TITLE "Part 1 - The Lord sends his thunders"
PERFORMER "Frankfurt Baroque Orchestra, Junge Kantorei"
INDEX 01 00:00:00
FILE "18 - Part 1 - All pow'r in heav'n above or earth beneath.wav" WAVE
TRACK 18 AUDIO
TITLE "Part 1 - All pow'r in heav'n above or earth beneath"
PERFORMER "Frankfurt Baroque Orchestra, Junge Kantorei"
INDEX 01 00:00:00
TRACK 19 AUDIO
TITLE "Part 2 - Sinfonia"
PERFORMER "Frankfurt Baroque Orchestra, Junge Kantorei"
INDEX 00 02:51:08
FILE "19 - Part 2 - Sinfonia.wav" WAVE
INDEX 01 00:00:00
FILE "20 - Part 2 - Alas. To what variety of ills.wav" WAVE
TRACK 20 AUDIO
TITLE "Part 2 - Alas. To what variety of ills"
PERFORMER "Frankfurt Baroque Orchestra, Junge Kantorei"
INDEX 01 00:00:00
FILE "21 - Part 2 - In great Jehovah.wav" WAVE
TRACK 21 AUDIO
TITLE "Part 2 - In great Jehovah"
PERFORMER "Frankfurt Baroque Orchestra, Junge Kantorei"
INDEX 01 00:00:00
FILE "22 - Part 2 - Happy in thee, my son.wav" WAVE
TRACK 22 AUDIO
TITLE "Part 2 - Happy in thee, my son"
PERFORMER "Frankfurt Baroque Orchestra, Junge Kantorei"
INDEX 01 00:00:00
TRACK 23 AUDIO
TITLE "Part 2 - Descend kind pity"
PERFORMER "Frankfurt Baroque Orchestra, Junge Kantorei"
INDEX 00 00:38:54
FILE "23 - Part 2 - Descend kind pity.wav" WAVE
INDEX 01 00:00:00
FILE "24 - Part 2 - Impartial heav'n.wav" WAVE
TRACK 24 AUDIO
TITLE "Part 2 - Impartial heav'n"
PERFORMER "Frankfurt Baroque Orchestra, Junge Kantorei"
INDEX 01 00:00:00
FILE "25 - Part 2 - If blindness, scorn, contempt and misery.wav" WAVE
TRACK 25 AUDIO
TITLE "Part 2 - If blindness, scorn, contempt and misery"
PERFORMER "Frankfurt Baroque Orchestra, Junge Kantorei"
INDEX 01 00:00:00
FILE "26 - Part 2 - O Baal.wav" WAVE
TRACK 26 AUDIO
TITLE "Part 2 - O Baal"
PERFORMER "Frankfurt Baroque Orchestra, Junge Kantorei"
INDEX 01 00:00:00
FILE "27 - Part 2 - Ritornello.wav" WAVE
TRACK 27 AUDIO
TITLE "Part 2 - Ritornello"
PERFORMER "Frankfurt Baroque Orchestra, Junge Kantorei"
INDEX 01 00:00:00
FILE "28 - Part 2 - Pain'd as I am.wav" WAVE
TRACK 28 AUDIO
TITLE "Part 2 - Pain'd as I am"
PERFORMER "Frankfurt Baroque Orchestra, Junge Kantorei"
INDEX 01 00:00:00
FILE "29 - Part 2 - Thy pleasing face.wav" WAVE
TRACK 29 AUDIO
TITLE "Part 2 - Thy pleasing face"
PERFORMER "Frankfurt Baroque Orchestra, Junge Kantorei"
INDEX 01 00:00:00
FILE "30 - Part 2 - O, though bright sun.wav" WAVE
TRACK 30 AUDIO
TITLE "Part 2 - O, though bright sun"
PERFORMER "Frankfurt Baroque Orchestra, Junge Kantorei"
INDEX 01 00:00:00
FILE "31 - Part 2 - With darkness deep, as is my woe.wav" WAVE
TRACK 31 AUDIO
TITLE "Part 2 - With darkness deep, as is my woe"
PERFORMER "Frankfurt Baroque Orchestra, Junge Kantorei"
INDEX 01 00:00:00
FILE "32 - Part 2 - Sinfonia.wav" WAVE
TRACK 32 AUDIO
TITLE "Part 2 - Sinfonia"
PERFORMER "Frankfurt Baroque Orchestra, Junge Kantorei"
INDEX 01 00:00:00
FILE "33 - Part 2 - What caution is too great.wav" WAVE
TRACK 33 AUDIO
TITLE "Part 2 - What caution is too great"
PERFORMER "Frankfurt Baroque Orchestra, Junge Kantorei"
INDEX 01 00:00:00
Ку CD2
REM GENRE Classical
REM DATE 2007
REM DISCID EF12BE21
REM COMMENT "ExactAudioCopy v0.95b4"
PERFORMER "Frankfurt Baroque Orchestra, Junge Kantorei"
TITLE "G.F.Handel - Tobit (Oratorio in Three Parts) CD 2of2"
FILE "01 - Part 2 - Though, God most high.wav" WAVE
TRACK 01 AUDIO
TITLE "Part 2 - Though, God most high"
PERFORMER "Frankfurt Baroque Orchestra, Junge Kantorei"
INDEX 01 00:00:00
FILE "02 - Part 2 - Cease thy anguish.wav" WAVE
TRACK 02 AUDIO
TITLE "Part 2 - Cease thy anguish"
PERFORMER "Frankfurt Baroque Orchestra, Junge Kantorei"
INDEX 01 00:00:00
FILE "03 - Part 2 - The clouded scene begins to clear.wav" WAVE
TRACK 03 AUDIO
TITLE "Part 2 - The clouded scene begins to clear"
PERFORMER "Frankfurt Baroque Orchestra, Junge Kantorei"
INDEX 01 00:00:00
FILE "04 - Part 2 - Sinfonia - Symphony.wav" WAVE
TRACK 04 AUDIO
TITLE "Part 2 - Sinfonia - Symphony"
PERFORMER "Frankfurt Baroque Orchestra, Junge Kantorei"
INDEX 01 00:00:00
FILE "05 - Part 2 - How happy, daughter.wav" WAVE
TRACK 05 AUDIO
TITLE "Part 2 - How happy, daughter"
PERFORMER "Frankfurt Baroque Orchestra, Junge Kantorei"
INDEX 01 00:00:00
FILE "06 - Part 2 - No nobler joys aspiring.wav" WAVE
TRACK 06 AUDIO
TITLE "Part 2 - No nobler joys aspiring"
PERFORMER "Frankfurt Baroque Orchestra, Junge Kantorei"
INDEX 01 00:00:00
FILE "07 - Part 2 - O Azarias, I must freely own.wav" WAVE
TRACK 07 AUDIO
TITLE "Part 2 - O Azarias, I must freely own"
PERFORMER "Frankfurt Baroque Orchestra, Junge Kantorei"
INDEX 01 00:00:00
FILE "08 - Part 2 - The gratefull tribute of our thanks.wav" WAVE
TRACK 08 AUDIO
TITLE "Part 2 - The gratefull tribute of our thanks"
PERFORMER "Frankfurt Baroque Orchestra, Junge Kantorei"
INDEX 01 00:00:00
FILE "09 - Part 2 - Let songs of varied measure.wav" WAVE
TRACK 09 AUDIO
TITLE "Part 2 - Let songs of varied measure"
PERFORMER "Frankfurt Baroque Orchestra, Junge Kantorei"
INDEX 01 00:00:00
FILE "10 - Part 2 - Now love, that everlasting joy.wav" WAVE
TRACK 10 AUDIO
TITLE "Part 2 - Now love, that everlasting joy"
PERFORMER "Frankfurt Baroque Orchestra, Junge Kantorei"
INDEX 01 00:00:00
FILE "11 - Part 2 - Happy, happy shall they be.wav" WAVE
TRACK 11 AUDIO
TITLE "Part 2 - Happy, happy shall they be"
PERFORMER "Frankfurt Baroque Orchestra, Junge Kantorei"
INDEX 01 00:00:00
FILE "12 - Part 3 - Sinfonia.wav" WAVE
TRACK 12 AUDIO
TITLE "Part 3 - Sinfonia"
PERFORMER "Frankfurt Baroque Orchestra, Junge Kantorei"
INDEX 01 00:00:00
FILE "13 - Part 3 - Still am I persecuted.wav" WAVE
TRACK 13 AUDIO
TITLE "Part 3 - Still am I persecuted"
PERFORMER "Frankfurt Baroque Orchestra, Junge Kantorei"
INDEX 01 00:00:00
FILE "14 - Part 3 - Cease your pride, deluded mortals.wav" WAVE
TRACK 14 AUDIO
TITLE "Part 3 - Cease your pride, deluded mortals"
PERFORMER "Frankfurt Baroque Orchestra, Junge Kantorei"
INDEX 01 00:00:00
FILE "15 - Part 3 - Tremble, guilt, for though shalt find.wav" WAVE
TRACK 15 AUDIO
TITLE "Part 3 - Tremble, guilt, for though shalt find"
PERFORMER "Frankfurt Baroque Orchestra, Junge Kantorei"
INDEX 01 00:00:00
FILE "16 - Part 3 - Sinfonia.wav" WAVE
TRACK 16 AUDIO
TITLE "Part 3 - Sinfonia"
PERFORMER "Frankfurt Baroque Orchestra, Junge Kantorei"
INDEX 01 00:00:00
FILE "17 - Part 3 - Hail, Tobit.wav" WAVE
TRACK 17 AUDIO
TITLE "Part 3 - Hail, Tobit"
PERFORMER "Frankfurt Baroque Orchestra, Junge Kantorei"
INDEX 01 00:00:00
FILE "18 - Part 3 - Henceforth through all changing scenes of life.wav" WAVE
TRACK 18 AUDIO
TITLE "Part 3 - Henceforth through all changing scenes of life"
PERFORMER "Frankfurt Baroque Orchestra, Junge Kantorei"
INDEX 01 00:00:00
FILE "19 - Part 3 - Ma son, how happy in thy sweet return.wav" WAVE
TRACK 19 AUDIO
TITLE "Part 3 - Ma son, how happy in thy sweet return"
PERFORMER "Frankfurt Baroque Orchestra, Junge Kantorei"
INDEX 01 00:00:00
FILE "20 - Part 3 - Let none despair.wav" WAVE
TRACK 20 AUDIO
TITLE "Part 3 - Let none despair"
PERFORMER "Frankfurt Baroque Orchestra, Junge Kantorei"
INDEX 01 00:00:00
FILE "21 - Part 3 - Blest be the God of Heav'n.wav" WAVE
TRACK 21 AUDIO
TITLE "Part 3 - Blest be the God of Heav'n"
PERFORMER "Frankfurt Baroque Orchestra, Junge Kantorei"
INDEX 01 00:00:00
FILE "22 - Part 3 - May true joy.wav" WAVE
TRACK 22 AUDIO
TITLE "Part 3 - May true joy"
PERFORMER "Frankfurt Baroque Orchestra, Junge Kantorei"
INDEX 01 00:00:00
FILE "23 - Part 3 - More cheerful appearing.wav" WAVE
TRACK 23 AUDIO
TITLE "Part 3 - More cheerful appearing"
PERFORMER "Frankfurt Baroque Orchestra, Junge Kantorei"
INDEX 01 00:00:00
FILE "24 - Part 3 - Watchfull angels.wav" WAVE
TRACK 24 AUDIO
TITLE "Part 3 - Watchfull angels"
PERFORMER "Frankfurt Baroque Orchestra, Junge Kantorei"
INDEX 01 00:00:00
FILE "25 - Part 3 - O King of Kings.wav" WAVE
TRACK 25 AUDIO
TITLE "Part 3 - O King of Kings"
PERFORMER "Frankfurt Baroque Orchestra, Junge Kantorei"
INDEX 01 00:00:00
FILE "26 - Part 3 - Allelujah.wav" WAVE
TRACK 26 AUDIO
TITLE "Part 3 - Allelujah"
PERFORMER "Frankfurt Baroque Orchestra, Junge Kantorei"
INDEX 01 00:00:00
FILE "27 - Part 3 - Swift our numbers.wav" WAVE
TRACK 27 AUDIO
TITLE "Part 3 - Swift our numbers"
PERFORMER "Frankfurt Baroque Orchestra, Junge Kantorei"
INDEX 01 00:00:00
FILE "28 - Part 3 - Tis well.wav" WAVE
TRACK 28 AUDIO
TITLE "Part 3 - Tis well"
PERFORMER "Frankfurt Baroque Orchestra, Junge Kantorei"
INDEX 01 00:00:00
FILE "29 - Part 3 - O Niniveh.wav" WAVE
TRACK 29 AUDIO
TITLE "Part 3 - O Niniveh"
PERFORMER "Frankfurt Baroque Orchestra, Junge Kantorei"
INDEX 01 00:00:00
FILE "30 - Part 3 - In Jehovah's awful sight.wav" WAVE
TRACK 30 AUDIO
TITLE "Part 3 - In Jehovah's awful sight"
PERFORMER "Frankfurt Baroque Orchestra, Junge Kantorei"
INDEX 01 00:00:00
FILE "31 - Part 3 - Symphony.wav" WAVE
TRACK 31 AUDIO
TITLE "Part 3 - Symphony"
PERFORMER "Frankfurt Baroque Orchestra, Junge Kantorei"
INDEX 01 00:00:00
FILE "32 - Part 3 - Saw ye the radiant streams of light.wav" WAVE
TRACK 32 AUDIO
TITLE "Part 3 - Saw ye the radiant streams of light"
PERFORMER "Frankfurt Baroque Orchestra, Junge Kantorei"
INDEX 01 00:00:00
FILE "33 - Part 3 - Ye servants of th'eternal King.wav" WAVE
TRACK 33 AUDIO
TITLE "Part 3 - Ye servants of th'eternal King"
PERFORMER "Frankfurt Baroque Orchestra, Junge Kantorei"
INDEX 01 00:00:00


Скачать торрент 728.36 МБ


Download
Для скачивания .torrent файлов необходима регистрация
Сайт не распространяет и не хранит электронные версии произведений, а лишь предоставляет доступ к создаваемому пользователями каталогу ссылок на торрент-файлы, которые содержат только списки хеш-сумм

Страница 1 из 1

Ответить на тему

   Похожие торренты   Торрент 




cron