Регистрация ·  Логин: Пароль: Запомнить   · Забыли пароль?




Ответить на тему
Статистика раздачи
Размер: 271.74 МБ | Зарегистрирован: 10 мар 2018, 13:16 | .torrent скачан: 0 раз(а)
Сидеров: [ 0  | 0 байт/сек ]   Личеров: [ 0  | 0 байт/сек ]   DHT: [ 0 / 0 ]
Автор Сообщение

Модератор
Аватара пользователя

Стаж: 6 лет
Сообщения: 7870
Молдова

Сообщение 10 мар 2018, 13:16 

[Цитировать]

Mélodies: Debussy, Duparc, Saint-Saëns, Chabrier, Hahn, Ravel - Stéphane Degout, Hélène Lucas

Жанр: Classical, song
Страна-производитель диска: France
Год издания диска: 2010
Издатель (лейбл): Naïve
Дата записи: 2010
Аудиокодек: FLAC
Тип рипа: image+.cue
Битрейт аудио: lossless
Продолжительность: 1:14:00
Источник: собственный рип
Наличие сканов в содержимом раздачи: да
Треклист:
Claude Debussy (1862-1918)
[1] La Mer est plus belle que les cathédrales
[2] Le Son du cor s'afflige vers les bois
[3] L'Échelonnement des haies
Henri Duparc (1848-1933)
[4] Le Galop
[5] Lamento
[6] Élégie
[7] La Vie antérieure
Camille Saint-Saëns (1835-1921)
[8] Au cimetière (Mélodies persanes)
[9] Tournoiement, songe d'opium (Mélodies persanes)
Emmanuel Chabrier (1841-1894)
[10] L'Île heureuse
[11] Chansons pour Jeanne
[12] Les Cigales
Reynaldo Hahn (1874-1947)
[13] Trois jours de vendanges
[14] Cimetière de campagne
Maurice Ravel (1875-1937)
Histoires naturelles
[15] Le Paon
[16] Le Grillon
[17] Le Cygne
[18] Le Martin-Pêcheur
[19] La Pintade
Claude Debussy
[20]-[22] Trois ballades de François Villon
Исполнители:
Stéphane Degout baritone
Hélène Lucas piano
Код:
Exact Audio Copy V1.0 beta 3 from 29. August 2011
EAC extraction logfile from 15. March 2013, 13:32
Stephane Degout, Helene Lucas / Melodies
Used drive  : HL-DT-STDVDRRW GWA-4164B   Adapter: 5  ID: 0
Read mode               : Secure
Utilize accurate stream : Yes
Defeat audio cache      : Yes
Make use of C2 pointers : No
Read offset correction                      : 102
Overread into Lead-In and Lead-Out          : No
Fill up missing offset samples with silence : Yes
Delete leading and trailing silent blocks   : No
Null samples used in CRC calculations       : Yes
Used interface                              : Native Win32 interface for Win NT & 2000
Used output format              : User Defined Encoder
Selected bitrate                : 896 kBit/s
Quality                         : High
Add ID3 tag                     : No
Command line compressor         : C:\Program Files\Exact Audio Copy\FLAC\FLAC.EXE
Additional command line options : -V -8 %source%
TOC of the extracted CD
     Track |   Start  |  Length  | Start sector | End sector
    ---------------------------------------------------------
        1  |  0:00.00 |  2:35.24 |         0    |    11648
        2  |  2:35.24 |  3:13.57 |     11649    |    26180
        3  |  5:49.06 |  1:46.06 |     26181    |    34136
        4  |  7:35.12 |  3:27.46 |     34137    |    49707
        5  | 11:02.58 |  3:12.61 |     49708    |    64168
        6  | 14:15.44 |  3:08.50 |     64169    |    78318
        7  | 17:24.19 |  5:07.36 |     78319    |   101379
        8  | 22:31.55 |  3:01.68 |    101380    |   115022
        9  | 25:33.48 |  3:10.32 |    115023    |   129304
       10  | 28:44.05 |  3:11.62 |    129305    |   143691
       11  | 31:55.67 |  4:01.23 |    143692    |   161789
       12  | 35:57.15 |  3:24.33 |    161790    |   177122
       13  | 39:21.48 |  3:29.74 |    177123    |   192871
       14  | 42:51.47 |  3:05.13 |    192872    |   206759
       15  | 45:56.60 |  4:52.24 |    206760    |   228683
       16  | 50:49.09 |  3:16.65 |    228684    |   243448
       17  | 54:05.74 |  3:42.08 |    243449    |   260106
       18  | 57:48.07 |  2:30.74 |    260107    |   271430
       19  | 60:19.06 |  3:17.52 |    271431    |   286257
       20  | 63:36.58 |  4:10.25 |    286258    |   305032
       21  | 67:47.08 |  4:34.60 |    305033    |   325642
       22  | 72:21.68 |  2:17.15 |    325643    |   335932
Range status and errors
Selected range
     Filename C:\temp\Melodies - Stephane Degout\Melodies.wav
     Peak level 91.6 %
     Extraction speed 2.9 X
     Range quality 100.0 %
     Test CRC 470B8856
     Copy CRC 470B8856
     Copy OK
No errors occurred
End of status report
==== Log checksum 343F63B75201224102EA64F3CB6785361AF0BD8007CA6D284432FE6AE2C894FF ====


Скачать торрент 271.74 МБ


Download
Для скачивания .torrent файлов необходима регистрация
Сайт не распространяет и не хранит электронные версии произведений, а лишь предоставляет доступ к создаваемому пользователями каталогу ссылок на торрент-файлы, которые содержат только списки хеш-сумм

Страница 1 из 1

Ответить на тему

   Похожие торренты   Торрент 




cron