Регистрация ·  Логин: Пароль: Запомнить   · Забыли пароль?




Ответить на тему
Статистика раздачи
Размер: 235.85 МБ | Зарегистрирован: 10 мар 2018, 13:17 | .torrent скачан: 1 раз(а)
Сидеров: [ 5  | 0 байт/сек ]   Личеров: [ 1  | 0 байт/сек ]   DHT: [ 5 / 1 ]
Автор Сообщение

Модератор
Аватара пользователя

Стаж: 6 лет
Сообщения: 7870
Молдова

Сообщение 10 мар 2018, 13:17 

[Цитировать]

Ensemble Alcatraz
Danse Royale
French, Anglo-Norman and Latin songs and dances from the 13th century
Жанр: Medieval, Vocal
Страна-производитель диска: USA
Год издания диска: 1990
Издатель (лейбл): Elektra Nonesuch
Номер по каталогу: 7559-79240-2
Дата записи: July 1989
Аудиокодек: WavPack
Тип рипа: image+.cue
Битрейт аудио: lossless
Продолжительность: 52:01
Источник: собственный рип
Наличие сканов в содержимом раздачи: да
01. En avril au tens pascour / Anon. Trouvère pastorale / ensemble [4:47]
02. La seconde Estampie Royale / Paris, Bib. Nat. MS f.fr.844 / Fulton, Higginson, Maund, Whelden [3:09]
03. S'onques nuls hoem / Anglo-Norman Crusade song · Brit. Lib. Harley MS 3775 / Morris [2:12]
04. Flos pudicitie / Cantus de domina post cantum Aaliz · Latin-Norman Lai, Arundel MS 248 / Morris, Fulton [4:58]
05. DS 11:11 / Instrumental arr. Fulton/Kammen / Fulton, Kammen, Maund [7:17]
06. Danse Royale I / Paris, Bib. Nat. MS f.fr.844 / Fulton, Kammen, Whelden [2:15]
07. Si tost c'amis / Renault de Hoilande · Anglo-Norman song PRO E163/22/1/2 / Morris [2:02]
08. Danse Royale II / Paris, Bib. Nat. MS f.fr.844 / Fulton, Kammen, Whelden [1:32]
09. El tens d'iver / Anon. Anglo-Norman song · Cambridge, Pembroke Coll. MS 113 / Morris, Kammen, Maund [2:24]
10. Retrove / Robertsbridge Codex · London, Brit. Mus., add. 28550 / Fulton, Kammen, Maund [4:47]
11. Espris d'ire et d'amour / Guillaume le Vinier · Trouvère lai, arr. Fulton/Whelden / Morris, Fulton [6:30]
12. La prime Estampie Royal / Paris, Bib. Nat. MS f.fr.844 · arr. Fulton/Whelden / Fulton, Maund, Whelden [4:05]
13. La ultime Estampie Real, La septime Estampie Real / Paris, Bib. Nat. MS f.fr.844 / Fulton, Higginson, Kammen, Maund [2:33]
14. Trop est mes maris jalos / Etienne de Meaux · Chanson de la mal-mariée / Morris, Kammen, Maund, Whelden [3:31]
Ensemble Alcatraz:
Susan Rode Morris, soprano
Cheryl Ann Fulton, medieval harps
Kit Higginson, recorders and psaltery
Shira Kammen, vielle and rebec
Peter Maund, percussion
with guest artist Roy Whelden vielle
Код:
Exact Audio Copy V0.99 prebeta 5 from 4. May 2009
Отчёт EAC об извлечении, выполненном 12. сентября 2011, 16:57
Ensemble Alcatraz / Danse Royale
Дисковод: PIONEER DVD-RW  DVR-219L   Adapter: 0  ID: 0
Режим чтения                 : Достоверность
Использование точного потока : Да
Отключение кэша аудио        : Да
Использование указателей C2  : Нет
Коррекция смещения при чтении                     : 6
Способность читать области Lead-in и Lead-out     : Нет
Заполнение пропущенных сэмплов тишиной            : Да
Удаление блоков с тишиной в начале и конце        : Нет
При вычислениях CRC использовались нулевые сэмплы : Да
Интерфейс                                         : Встроенный Win32-интерфейс для Win NT/2000
Выходной формат : Внутренние WAV-операции
Формат сэмплов  : 44.100 Гц; 16 бит; стерео
TOC извлечённого CD
     Трек |   Старт  | Длительность | Начальный сектор | Конечный сектор
    ---------------------------------------------------------------------
       1  |  0:00.00 |    4:46.68   |           0      |      21517
       2  |  4:46.68 |    3:08.70   |       21518      |      35687
       3  |  7:55.63 |    2:11.72   |       35688      |      45584
       4  | 10:07.60 |    4:58.10   |       45585      |      67944
       5  | 15:05.70 |    7:16.48   |       67945      |     100692
       6  | 22:22.43 |    2:15.12   |      100693      |     110829
       7  | 24:37.55 |    2:01.50   |      110830      |     119954
       8  | 26:39.30 |    1:31.50   |      119955      |     126829
       9  | 28:11.05 |    2:23.73   |      126830      |     137627
      10  | 30:35.03 |    4:47.07   |      137628      |     159159
      11  | 35:22.10 |    6:29.73   |      159160      |     188407
      12  | 41:52.08 |    4:05.20   |      188408      |     206802
      13  | 45:57.28 |    2:32.62   |      206803      |     218264
      14  | 48:30.15 |    3:30.53   |      218265      |     234067
Характеристики диапазона извлечения и сообщения об ошибках
Выбранный диапазон
     Имя файла C:\Documents and Settings\Agni\Мои документы\EAC\Ensemble Alcatraz - Danse Royale.wav
     Пиковый уровень 99.8 %
     Качество диапазона 100.0 %
     CRC теста BC933475
     CRC копии BC933475
     Копирование... OK
Ошибок не произошло
AccurateRip: сводка
Трек  1  нет в базе данных
Трек  2  нет в базе данных
Трек  3  нет в базе данных
Трек  4  нет в базе данных
Трек  5  нет в базе данных
Трек  6  нет в базе данных
Трек  7  нет в базе данных
Трек  8  нет в базе данных
Трек  9  нет в базе данных
Трек 10  нет в базе данных
Трек 11  нет в базе данных
Трек 12  нет в базе данных
Трек 13  нет в базе данных
Трек 14  нет в базе данных
Ни одного трека нет в базе AccurateRip
Конец отчёта
Ensemble Alcatraz ("alcatraz" being an early Iberian word for "pelican", itself an early
religious symbol) specialized in medieval and Renaissance music from Spain,
Portugal, France, and Italy. Based in the San Francisco Bay area, the group performed
throughout the United States, Canada and Europe until 1987 as La Corte Musical.
Produced by Peter Clancy
Recorded at Stewart Chapel,
San Francisco Theological Seminary, San Anselmo, July 1989
Engineer: Jack Vad
Editing: Jack Vad on Studer Dyaxis
Editing assistant: Kit Higginson
Mastering: Robert C. Ludwig
Design: John Heiden
Cover Art: L'offrande du coeur, tapestry,
Arras, 15th cent., Musée Cluny, Paris Photo R.M.N.
Reproduced by permission.
Instrument makers:
Gothic harp: David Brooks, Cithara anglica: Rainer Thurau,
Psaltery: David Brooks, Vielles: Fabrizio Reginato,
Rebec: John Fleagle, Ganassi recorder: Peter Kobliczek
French text translations - Nos. 1, 11, 11 -
by Prof. S.N. Rosenberg (Indiana University)
Latin and Anglo-Norman text translations - Nos. 3, 4, 7, 9 -
by Prof. John Stevens (Magdalene College, Cambridge)
Special thanks to: John Stevens, samuel N. Rosenberg, Lawrence Rosenwald,
Daniel Drasin, Gerry Kearby, Hervé Boissière, Adele Anthony and Melvin Jahn


Скачать торрент 235.85 МБ


Download
Для скачивания .torrent файлов необходима регистрация
Сайт не распространяет и не хранит электронные версии произведений, а лишь предоставляет доступ к создаваемому пользователями каталогу ссылок на торрент-файлы, которые содержат только списки хеш-сумм

Страница 1 из 1

Ответить на тему

   Похожие торренты   Торрент