Регистрация ·  Логин: Пароль: Запомнить   · Забыли пароль?




Ответить на тему
Статистика раздачи
Размер: 368.65 МБ | Зарегистрирован: 10 мар 2018, 13:17 | .torrent скачан: 0 раз(а)
Сидеров: [ 0  | 0 байт/сек ]   Личеров: [ 0  | 0 байт/сек ]   DHT: [ 0 / 0 ]
Автор Сообщение

Модератор
Аватара пользователя

Стаж: 6 лет
Сообщения: 7870
Молдова

Сообщение 10 мар 2018, 13:17 

[Цитировать]

Laudario di Cortona
Un mystère du XIIIe siècle A Medieval Mystery
Ein Mysterienspiel des 13. Jahrhunderts
Ensemble Organum Marcel Pérès
Жанр: Medieval
Страна-производитель диска: Germany
Год издания диска: 1996
Издатель (лейбл): Harmonia Mundi
Номер по каталогу: HMC 901582
Дата записи: November 1995
Аудиокодек: WavPack
Тип рипа: image+.cue
Битрейт аудио: lossless
Продолжительность: 79:41
Источник: собственный рип
Наличие сканов в содержимом раздачи: да
SCENES DE LA VIE DU CHRIST
Annonciation
01. Lauda VI: Dal ciel venne messo novello [8:50]
Récit (9), l'ange Gabriel (6), Marie (7)
02. Motet: Ave Regina - Mater innocencie - Ite missa est {2, 3 & 4} [3:35]
Marcus Paduanus (Oxford, BL, ms lat. 112)
Nativité
03. Lauda XVIII: Christo è nato et humanato [6:57]
Récit (8) avec refrain; organistrum (6 & 8)
Les Rois Mages
04. Lauda XX: Stella nova 'n fra la gente [5:45]
Récit (6); les mages (2, 3 & 4) et Hérode (5)
05. Hymne: Puer natus {2, 3 & 4} [2:26]
(Modena, BE, ms, 5.24)
Annonce des souffrances du Christ
06. Lauda XXII: Ben è crudele e spïetoso [9:52]
Récit (8) avec refrain; rubeb (1)
La passion et la mise en croix
07. Lauda XXIII: De la crudel morte de cristo on'hom pianga amaramente [10:57]
Récit (9) avec refrain; les trente deniers de Juda, la flagellation;
la présentation de Jésus à Pilate; la crucifixion, saint Jean et Marie
08. Lauda XXV: Onne homo ad alta voce laudi la vera croce [7:45]
Récit (2 & 3), Jésus (1), Marie (7)
Déposition de la croix
09. Répons: Media vita {2 & 3} [5:54]
Adoration du tombeau
10. Motet: Ortorum virentium - Virga Jesse - Victime paschali laudes {2, 3 & 6} [1:53]
(Florence, BNC, Banco Rari 18)
Résurrection
11. Lauda XXVI: Iesú cristo glorïoso [10:48]
Récit avec refrain (5, 3 & 6); résurrection, l'Ange (10)
Pélerins d'Emmaüs (8) et Thomas (2); organistrum (5)
12. Litanie: Crucifixum in carne [4:59]
(Reggio Emilia, BM, ms C 408)
Ensemble Organum:
dir. Marcel Pérès

Malcolm Bothwell (1)
Marcel Pérès (2)
Jean-Etienne Langianni (3)
Jean-Pierre Lanfranchi (4)
Jérôme Casalonga (5)
François-Philippe Barbolosi (6)
Pascale Poulard (7)
Patrizia Bovi (8)
Gilberte Casabianca (9)
Aline Filippi (10)
Код:
Exact Audio Copy V0.99 prebeta 5 from 4. May 2009
Отчёт EAC об извлечении, выполненном 1. июня 2012, 17:10
Ensemble Organum / Laudario di Cortona - Un mystere du XIIIe siecle
Дисковод: PIONEER DVD-RW  DVR-219L   Adapter: 2  ID: 1
Режим чтения                 : Достоверность
Использование точного потока : Да
Отключение кэша аудио        : Да
Использование указателей C2  : Нет
Коррекция смещения при чтении                     : 6
Способность читать области Lead-in и Lead-out     : Нет
Заполнение пропущенных сэмплов тишиной            : Да
Удаление блоков с тишиной в начале и конце        : Нет
При вычислениях CRC использовались нулевые сэмплы : Да
Интерфейс                                         : Встроенный Win32-интерфейс для Win NT/2000
Выходной формат : Внутренние WAV-операции
Формат сэмплов  : 44.100 Гц; 16 бит; стерео
TOC извлечённого CD
     Трек |   Старт  | Длительность | Начальный сектор | Конечный сектор
    ---------------------------------------------------------------------
       1  |  0:00.00 |    8:50.32   |           0      |      39781
       2  |  8:50.32 |    3:34.58   |       39782      |      55889
       3  | 12:25.15 |    6:57.00   |       55890      |      87164
       4  | 19:22.15 |    5:45.15   |       87165      |     113054
       5  | 25:07.30 |    2:26.07   |      113055      |     124011
       6  | 27:33.37 |    9:52.03   |      124012      |     168414
       7  | 37:25.40 |   10:56.47   |      168415      |     217661
       8  | 48:22.12 |    7:44.63   |      217662      |     252524
       9  | 56:07.00 |    5:54.12   |      252525      |     279086
      10  | 62:01.12 |    1:53.18   |      279087      |     287579
      11  | 63:54.30 |   10:47.70   |      287580      |     336174
      12  | 74:42.25 |    4:58.62   |      336175      |     358586
Характеристики диапазона извлечения и сообщения об ошибках
Выбранный диапазон
     Имя файла C:\Documents and Settings\agni\Мои документы\EAC\Ensemble Organum - Laudario di Cortona - Un mystere du XIIIe siecle.wav
     Пиковый уровень 97.1 %
     Качество диапазона 100.0 %
     CRC теста 89AF5520
     CRC копии 89AF5520
     Копирование... OK
Ошибок не произошло
AccurateRip: сводка
Трек  1  нет в базе данных
Трек  2  нет в базе данных
Трек  3  нет в базе данных
Трек  4  нет в базе данных
Трек  5  нет в базе данных
Трек  6  нет в базе данных
Трек  7  нет в базе данных
Трек  8  нет в базе данных
Трек  9  нет в базе данных
Трек 10  нет в базе данных
Трек 11  нет в базе данных
Трек 12  нет в базе данных
Ни одного трека нет в базе AccurateRip
Конец отчёта



Скачать торрент 368.65 МБ


Download
Для скачивания .torrent файлов необходима регистрация
Сайт не распространяет и не хранит электронные версии произведений, а лишь предоставляет доступ к создаваемому пользователями каталогу ссылок на торрент-файлы, которые содержат только списки хеш-сумм

Страница 1 из 1

Ответить на тему

   Похожие торренты   Торрент