Регистрация ·  Логин: Пароль: Запомнить   · Забыли пароль?




Ответить на тему
Статистика раздачи
Размер: 263.02 МБ | Зарегистрирован: 10 мар 2018, 13:17 | .torrent скачан: 0 раз(а)
Сидеров: [ 1  | 0 байт/сек ]   Личеров: [ 0  | 0 байт/сек ]   DHT: [ 1 / 0 ]
Автор Сообщение

Модератор
Аватара пользователя

Стаж: 6 лет
Сообщения: 7870
Молдова

Сообщение 10 мар 2018, 13:17 

[Цитировать]

Vivaldi - 'Le cantate' (RV 665, RV 667, RV 662, RV 656, RV 796, RV 653) - Nicky Kennedy, Federico Maria Sardelli, Modo Antiquo

Жанр: Vocal
Год выпуска диска: 1999
Производитель диска: Tactus Records
Аудио кодек: APE
Тип рипа: image+.cue
Битрейт аудио: lossless
Продолжительность: 62:13
Источник: WEB
Треклист:
Si levi dai pensier RV 665:
1. Allegro
2. Recitativo
3. Allegro
Sorge vermiglia in ciel la bella Aurora RV 667:
4. Recitativo
5. Largo
6. Recitativo
7. Allegro
Par che tardo RV 662:
8. Larghetto
9. Recitativo
10. Allegro
Fonti del pianto RV 656:
11. Andante
12. Recitativo
13. Allegro
Usignoletto bello RV 796:
14. Andante
15. Recitativo
16. Larghetto
Del suo natio rigore RV 653:
17. Recitativo
18. Andante
19. Recitativo
20. Allegro
Доп. информация:
Nicki Kennedy - soprano
Federico Maria Sardelli - conductor
Modo Antiquo
Cue
REM DISCID 100E9314
REM COMMENT "ExactAudioCopy v0.95b4"
PERFORMER "Modo Antiquo - Federico Maria Sardelli"
TITLE "Vivaldi - Le Cantate parte terza"
FILE "Modo Antiquo - Federico Maria Sardelli - Vivaldi - Le Cantate parte terza.ape" WAVE
TRACK 01 AUDIO
TITLE "Track01"
PERFORMER "Modo Antiquo - Federico Maria Sardelli"
INDEX 01 00:00:00
TRACK 02 AUDIO
TITLE "Track02"
PERFORMER "Modo Antiquo - Federico Maria Sardelli"
INDEX 01 02:39:08
TRACK 03 AUDIO
TITLE "Track03"
PERFORMER "Modo Antiquo - Federico Maria Sardelli"
INDEX 01 03:50:20
TRACK 04 AUDIO
TITLE "Track04"
PERFORMER "Modo Antiquo - Federico Maria Sardelli"
INDEX 00 06:20:37
INDEX 01 06:26:47
TRACK 05 AUDIO
TITLE "Track05"
PERFORMER "Modo Antiquo - Federico Maria Sardelli"
INDEX 01 13:22:62
TRACK 06 AUDIO
TITLE "Track06"
PERFORMER "Modo Antiquo - Federico Maria Sardelli"
INDEX 01 14:22:52
TRACK 07 AUDIO
TITLE "Track07"
PERFORMER "Modo Antiquo - Federico Maria Sardelli"
INDEX 00 18:03:69
INDEX 01 18:08:58
TRACK 08 AUDIO
TITLE "Track08"
PERFORMER "Modo Antiquo - Federico Maria Sardelli"
INDEX 01 19:40:55
TRACK 09 AUDIO
TITLE "Track09"
PERFORMER "Modo Antiquo - Federico Maria Sardelli"
INDEX 01 25:31:12
TRACK 10 AUDIO
TITLE "Track10"
PERFORMER "Modo Antiquo - Federico Maria Sardelli"
INDEX 01 27:08:36
TRACK 11 AUDIO
TITLE "Track11"
PERFORMER "Modo Antiquo - Federico Maria Sardelli"
INDEX 00 30:50:53
INDEX 01 30:58:18
TRACK 12 AUDIO
TITLE "Track12"
PERFORMER "Modo Antiquo - Federico Maria Sardelli"
INDEX 01 37:41:58
TRACK 13 AUDIO
TITLE "Track13"
PERFORMER "Modo Antiquo - Federico Maria Sardelli"
INDEX 01 38:54:72
TRACK 14 AUDIO
TITLE "Track14"
PERFORMER "Modo Antiquo - Federico Maria Sardelli"
INDEX 00 42:09:14
INDEX 01 42:15:01
TRACK 15 AUDIO
TITLE "Track15"
PERFORMER "Modo Antiquo - Federico Maria Sardelli"
INDEX 01 45:20:13
TRACK 16 AUDIO
TITLE "Track16"
PERFORMER "Modo Antiquo - Federico Maria Sardelli"
INDEX 01 46:33:03
TRACK 17 AUDIO
TITLE "Track17"
PERFORMER "Modo Antiquo - Federico Maria Sardelli"
INDEX 00 51:24:20
INDEX 01 51:33:52
TRACK 18 AUDIO
TITLE "Track18"
PERFORMER "Modo Antiquo - Federico Maria Sardelli"
INDEX 01 52:54:57
TRACK 19 AUDIO
TITLE "Track19"
PERFORMER "Modo Antiquo - Federico Maria Sardelli"
INDEX 01 57:58:38
TRACK 20 AUDIO
TITLE "Track20"
PERFORMER "Modo Antiquo - Federico Maria Sardelli"
INDEX 01 59:12:08
Log
EAC extraction logfile from 29. January 2007, 13:19 for CD
Modo Antiquo - Federico Maria Sardelli / Vivaldi - Le Cantate parte terza
Used drive : HL-DT-STDVD-ROM GDR8163B Adapter: 0 ID: 0
Read mode : Secure with NO C2, accurate stream, disable cache
Combined read/write offset correction : 0
Overread into Lead-In and Lead-Out : No
Used output format : C:\Archivos de programa\The GodFather\Bin\mac.exe (Monkey's Audio Lossless Encoder)
High Lossless Compression
Other options :
Fill up missing offset samples with silence : Yes
Delete leading and trailing silent blocks : No
Native Win32 interface for Win NT & 2000
Range status and errors
Selected range
Filename C:\Documents and Settings\Jose\Mis documentos\Mi mъsica\Subida\Modo Antiquo - Federico Maria Sardelli - Vivaldi - Le Cantate parte terza.wav
Peak level 99.9 %
Range quality 100.0 %
CRC D38C1139
Copy OK
No errors occured
End of status report
------------------------------------------------------------
EAC extraction logfile from 29. January 2007, 13:19 for CD
Modo Antiquo - Federico Maria Sardelli / Vivaldi - Le Cantate parte terza
Used drive : HL-DT-STDVD-ROM GDR8163B Adapter: 0 ID: 0
Read mode : Secure with NO C2, accurate stream, disable cache
Combined read/write offset correction : 0
Overread into Lead-In and Lead-Out : No
Used output format : C:\Archivos de programa\The GodFather\Bin\mac.exe (Monkey's Audio Lossless Encoder)
High Lossless Compression
Other options :
Fill up missing offset samples with silence : Yes
Delete leading and trailing silent blocks : No
Native Win32 interface for Win NT & 2000
Range status and errors
Selected range
Filename C:\Documents and Settings\Jose\Mis documentos\Mi mъsica\Subida\Modo Antiquo - Federico Maria Sardelli - Vivaldi - Le Cantate parte terza.wav
Peak level 99.9 %
Range quality 100.0 %
CRC D38C1139
Copy OK
No errors occured
End of status report


Скачать торрент 263.02 МБ


Download
Для скачивания .torrent файлов необходима регистрация
Сайт не распространяет и не хранит электронные версии произведений, а лишь предоставляет доступ к создаваемому пользователями каталогу ссылок на торрент-файлы, которые содержат только списки хеш-сумм

Страница 1 из 1

Ответить на тему

   Похожие торренты   Торрент 




cron