Регистрация ·  Логин: Пароль: Запомнить   · Забыли пароль?




Ответить на тему
Статистика раздачи
Размер: 246.02 МБ | Зарегистрирован: 10 мар 2018, 13:17 | .torrent скачан: 0 раз(а)
Сидеров: [ 1  | 0 байт/сек ]   Личеров: [ 0  | 0 байт/сек ]   DHT: [ 1 / 0 ]
Автор Сообщение

Модератор
Аватара пользователя

Стаж: 6 лет
Сообщения: 7870
Молдова

Сообщение 10 мар 2018, 13:17 

[Цитировать]

Совместный проект "Вивальди- Оркестр" и Светилен

Жанр: Classical/ Православные песнопения
Год выпуска диска: 2001
Производитель диска: Россия
Аудио кодек: FLAC
Тип рипа: image+.cue
Битрейт аудио: lossless
Продолжительность: 61:46
Трэклист:
Antonio Vivaldi
<Gloria>- кантанта для солистов, хора и оркестра (RV- 589)
1.Gloria in excelsis Deo (хор)
2.Et in terra pax hominibus (хор)
3.Laudamamus te (сопрано)
4.Gratias agimus tibi
5.Propter magnam gloriam (хор)
6.Domine Deus (сопрано)
7.Domine Fili Unigentine (хор)
8.Domine Deus, Agenus Dei (меццо-сопрано, хор)
9.Qui tollis peccata mundi (хор)
10.Qui sedes ad dexteram (меццо-сопрано)
11.Quoniam tu solus Sanctus (хор)
12.Dum Sancto Spiritu (хор)
Д. Бортянский
13.Концерт №15 "Придите вспоим, людие"
14.Концерт №32 "Скажи им Господи, кончину мою"
15.Концерт №34 "Да воскреснет Бог"
Г. Свиридов
16."Господи, спаси благочестивые"
"Святой Боже"
17."Достойно есть"
18."Слава пресвятой троице"
19."Придите, поклонимся"
20."Помилуй нас, Господи"
21."Слава" (тихая)
"Покаяние блудного сына"
"Слава" (монастырская)
LOG
Exact Audio Copy V0.99 prebeta 5 from 4. May 2009
Отчёт EAC об извлечении, выполненном 20. июня 2009, 0:32
Светилен / Светилен
Дисковод: _NEC DVD_RW ND-4570A Adapter: 1 ID: 0
Режим чтения : Достоверность
Использование точного потока : Да
Отключение кэша аудио : Да
Использование указателей C2 : Нет
Коррекция смещения при чтении : 48
Способность читать области Lead-in и Lead-out : Нет
Заполнение пропущенных сэмплов тишиной : Да
Удаление блоков с тишиной в начале и конце : Нет
При вычислениях CRC использовались нулевые сэмплы : Да
Интерфейс : Установленный внешний ASPI-интерфейс
Выходной формат : Пользовательский кодировщик
Выбранный битрейт : 768 kBit/s
Качество : Высокий
Добавление ID3-тэга : Нет
Утилита сжатия : C:\Program Files\Exact Audio Copy\FLAC\FLAC.EXE
Дополнительные параметры : -6 -V -T "ARTIST=%a" -T "TITLE=%t" -T "ALBUM=%g" -T "DATE=%y" -T "TRACKNUMBER=%n" -T "GENRE=%m" -T "COMMENT=%e" %s -o %d
TOC извлечённого CD
Трек | Старт | Длительность | Начальный сектор | Конечный сектор
---------------------------------------------------------------------
1 | 0:00.00 | 2:35.21 | 0 | 11645
2 | 2:35.21 | 5:36.70 | 11646 | 36915
3 | 8:12.16 | 2:16.10 | 36916 | 47125
4 | 10:28.26 | 0:29.74 | 47126 | 49374
5 | 10:58.25 | 0:55.16 | 49375 | 53515
6 | 11:53.41 | 3:57.41 | 53516 | 71331
7 | 15:51.07 | 2:09.03 | 71332 | 81009
8 | 18:00.10 | 5:20.50 | 81010 | 105059
9 | 23:20.60 | 0:59.23 | 105060 | 109507
10 | 24:20.08 | 2:11.40 | 109508 | 119372
11 | 26:31.48 | 0:51.01 | 119373 | 123198
12 | 27:22.49 | 2:55.38 | 123199 | 136361
13 | 30:18.12 | 4:55.25 | 136362 | 158511
14 | 35:13.37 | 8:15.64 | 158512 | 195700
15 | 43:29.26 | 4:14.16 | 195701 | 214766
16 | 47:43.42 | 4:14.36 | 214767 | 233852
17 | 51:58.03 | 1:44.48 | 233853 | 241700
18 | 53:42.51 | 0:57.74 | 241701 | 246049
19 | 54:40.50 | 1:41.06 | 246050 | 253630
20 | 56:21.56 | 1:51.19 | 253631 | 261974
21 | 58:13.00 | 3:42.01 | 261975 | 278625
Характеристики диапазона извлечения и сообщения об ошибках
Выбранный диапазон
Имя файла F:\Downloads\Светилен\Светилен - Светилен.wav
Пиковый уровень 87.4 %
Качество диапазона 100.0 %
CRC копии 6EF254AB
Копирование... OK
Ошибок не произошло
Конец отчёта
Фантики


Скачать торрент 246.02 МБ


Download
Для скачивания .torrent файлов необходима регистрация
Сайт не распространяет и не хранит электронные версии произведений, а лишь предоставляет доступ к создаваемому пользователями каталогу ссылок на торрент-файлы, которые содержат только списки хеш-сумм

Страница 1 из 1

Ответить на тему

   Похожие торренты   Торрент 




cron