Регистрация ·  Логин: Пароль: Запомнить   · Забыли пароль?




Ответить на тему
Статистика раздачи
Размер: 244.7 МБ | Зарегистрирован: 10 мар 2018, 13:17 | .torrent скачан: 1 раз(а)
Сидеров: [ 3  | 0 байт/сек ]   Личеров: [ 1  | 0 байт/сек ]   DHT: [ 3 / 1 ]
Автор Сообщение

Модератор
Аватара пользователя

Стаж: 6 лет
Сообщения: 7870
Молдова

Сообщение 10 мар 2018, 13:17 

[Цитировать]

Messe de Tournai
(XIVe siècle)
Ensemble Organum
dir. Marcel Pérès

Жанр: Medieval
Страна-производитель диска: Germany
Год издания диска: 1991
Издатель (лейбл): Harmonia Mundi
Номер по каталогу: HMC 901353
Дата записи: September 1990
Аудиокодек: WavPack
Тип рипа: image+.cue
Битрейт аудио: lossless
Продолжительность: 53:15
Источник: собственный рип
Наличие сканов в содержимом раздачи: да
01. Introït: Salve sancta parens (tutti - solo 3) [3:35]
02. Kyrie (tutti - soli 1-3-5) [2:26]
03. Gloria in excelsis Deo (tutti - soli 1-3-5) [7:35]
04. Graduel: Benedicta et venerabilis (tutti - solo 5) [4:47]
05. Alleluia: Nobilis atque pia (tutti - solo 1) [3:59]
06. Alleluia: Ave Maria gratia plena (tutti - solo 3) [2:37]
07. Séquence: Ave mundi spes Maria (tutti - soli 1-3) [3:53]
08. Credo in unum Deum (tutti - soli 1-3-5) [7:11]
09. Offertoire: Felix namque es sacra virgo (ténors) [1:59]
10. Préface (solo 4) - Sanctus (tutti - soli 1-3-5) [5:51]
11. Agnus Dei (tutti - soli 1-3-5) [1:32]
12. Communion: Beata viscera (tutti - solo 3) [5:23]
13. Ite missa est (solo 4) - Deo gratias - Motet (soli 1-2-3) [2:27]
Ensemble Organum:
dir. Marcel Pérès

Josep Benet (1), Patrick Aubally (2), Frédéric Richard, ténors
Josep Cabré (3), Marcel Pérès (4), barytons
Malcolm Bothwell (5), Antoine Sicot, basses
Код:
Exact Audio Copy V0.99 prebeta 5 from 4. May 2009
Отчёт EAC об извлечении, выполненном 2. июня 2012, 9:42
Ensemble Organum / Messe de Tournai
Дисковод: PIONEER DVD-RW  DVR-219L   Adapter: 2  ID: 1
Режим чтения                 : Достоверность
Использование точного потока : Да
Отключение кэша аудио        : Да
Использование указателей C2  : Нет
Коррекция смещения при чтении                     : 6
Способность читать области Lead-in и Lead-out     : Нет
Заполнение пропущенных сэмплов тишиной            : Да
Удаление блоков с тишиной в начале и конце        : Нет
При вычислениях CRC использовались нулевые сэмплы : Да
Интерфейс                                         : Встроенный Win32-интерфейс для Win NT/2000
Выходной формат : Внутренние WAV-операции
Формат сэмплов  : 44.100 Гц; 16 бит; стерео
TOC извлечённого CD
     Трек |   Старт  | Длительность | Начальный сектор | Конечный сектор
    ---------------------------------------------------------------------
       1  |  0:00.38 |    3:35.37   |          38      |      16199
       2  |  3:36.00 |    2:25.65   |       16200      |      27139
       3  |  6:01.65 |    7:35.30   |       27140      |      61294
       4  | 13:37.20 |    4:46.65   |       61295      |      82809
       5  | 18:24.10 |    3:58.65   |       82810      |     100724
       6  | 22:23.00 |    2:36.55   |      100725      |     112479
       7  | 24:59.55 |    3:52.48   |      112480      |     129927
       8  | 28:52.28 |    7:11.22   |      129928      |     162274
       9  | 36:03.50 |    1:58.50   |      162275      |     171174
      10  | 38:02.25 |    5:51.25   |      171175      |     197524
      11  | 43:53.50 |    1:31.58   |      197525      |     204407
      12  | 45:25.33 |    5:22.72   |      204408      |     228629
      13  | 50:48.30 |    2:26.60   |      228630      |     239639
Характеристики диапазона извлечения и сообщения об ошибках
Выбранный диапазон
     Имя файла C:\Documents and Settings\agni\Мои документы\EAC\Ensemble Organum - Messe de Tournai.wav
     Пиковый уровень 88.0 %
     Качество диапазона 100.0 %
     CRC теста 975DC551
     CRC копии 975DC551
     Копирование... OK
Ошибок не произошло
AccurateRip: сводка
Трек  1  нет в базе данных
Трек  2  нет в базе данных
Трек  3  нет в базе данных
Трек  4  нет в базе данных
Трек  5  нет в базе данных
Трек  6  нет в базе данных
Трек  7  нет в базе данных
Трек  8  нет в базе данных
Трек  9  нет в базе данных
Трек 10  нет в базе данных
Трек 11  нет в базе данных
Трек 12  нет в базе данных
Трек 13  нет в базе данных
Ни одного трека нет в базе AccurateRip
Конец отчёта

Harmonia Mundi S.A., Mas de Vert, 13200 Arles (p) 1991
Enregistrement septembre 1990 à Saintes, Abbaye-aux-Dames
Prise de son et direction artistique Jean-Martial Golaz
Illustration: Vierge à l'enfant, France, XIVe s.
Musée des Beaux-Arts, Besançon. Cliché Lauros-Giraudon
Maquette Relations. Imprimé en Allemagne


Скачать торрент 244.7 МБ


Download
Для скачивания .torrent файлов необходима регистрация
Сайт не распространяет и не хранит электронные версии произведений, а лишь предоставляет доступ к создаваемому пользователями каталогу ссылок на торрент-файлы, которые содержат только списки хеш-сумм

Страница 1 из 1

Ответить на тему

   Похожие торренты   Торрент