Регистрация ·  Логин: Пароль: Запомнить   · Забыли пароль?




Ответить на тему
Статистика раздачи
Размер: 249.7 МБ | Зарегистрирован: 10 мар 2018, 13:17 | .torrent скачан: 0 раз(а)
Сидеров: [ 5  | 0 байт/сек ]   Личеров: [ 1  | 0 байт/сек ]   DHT: [ 5 / 1 ]
Автор Сообщение

Модератор
Аватара пользователя

Стаж: 6 лет
Сообщения: 7870
Молдова

Сообщение 10 мар 2018, 13:17 

[Цитировать]

Thomas Stolzer
Die deutschen Psalmen
Minnesang - Die Spaetzeit / The Mature Period / L'Epoque Tardive (Ensemble fuer fruehe Musik Augsburg, Ciarlatani, Estampie, Andrea von Ramm) - 2004, Ape (Image + Cue) lossless
Asfur - Las Estrellas - 2005, Ape (Image + Cue) lossless
Balades a III Chans de Johan Robert "Trebor", Baude Cordier, Matteo da Perugia, Antonio da Cividale, Magister Grimace, & al. (Crawford Young) - 1995, Ape (Image + Cue) lossless
Cantigas de Santa Maria - Alfonso X el Sabio (de Castilla), (Gilles Binchois Ensemble) - 2005, Ape (Image + Cue) lossless
Carrefour de la Mediterranee - Cantemir, Khanendeh, Tabassian, Georginis, Batznos, Anonymous (Constantinople-Ensemble; En Chordais-Ensemble; Imane Homsy, Ghada Shbeir) - 2004, Ape (Image + Cue) lossless
Crusaders - In Nomine Domini (Estampie) - 1996, Ape (Image + Cue) lossless
Dekameron - czyli historia milosci sredniowiecznej or the History of Medieval Love (Tadeus Czechak, Dekameron) - 1994, Ape (Image + Cue) lossless
Hoquetus - Medieval European Vocal Music (Hargis, Rickards, Bennett, Elliott, Carberg, Thompson, George, Ch.Bowers-Broadben; Hillier) - 1999, Ape (Image + Cue) lossless
Thomas Stolzer - Die deutschen Psalmen / Немецкие Псалмы (Teichert-Hailperin, Smith, Jochens, Nitz, Marsten, Stellbrink, Deusch; Instr.ensemble Helga Weber, Исп. на аутентичных инстр.) - 1984, Ape (Image + Cue) lossless
Sarum Chant. Bishop Giles de Bridport - Missa in gallicantu, Four Hymns (Peter Phillips - The Tallis Scholars) - 1988, Ape (Image + Cue) lossless
The Early Music Consort of London - Music of the Crusades - 1971, FLAC (image+.cue), lossless
Constantinople - Musique du moyen age et de la Renaissance - 2001, FLAC (image+.cue), lossless


Жанр: Псалм
Производитель диска: MusiContact GmbH - Christophorus, Германия
Год выпуска: 1993
Аудио кодек: APE
Тип рипа: image+.cue
Битрейт аудио: lossless
Продолжительность: 50.54
Приложение: pdf
Формат записи: ADD
Запись: 1984
Источник: Собственная коллекция записей
Доп. информация: Исполняется на аутентичных инструментах
Psalm 37: Erzürne dich nicht
I, sechsstimmig, 6 Sänger, 2 Pommern, 2 Krummhörner, 2 Gamben, BaBflöte, BaBdufcian
II, sechssfimmjg, 2 Gamben, Alfdulcian, Baßflöte
III, dreistimmig, 3 Krummhörner, 3 Blockflöten
IV, dreistimmig, 3 Dulciane
V, sechssîimmig, 6 Sänger, 4 Blockflöfen, Sopranquerflöte, 2 Gamben BaBdulcian
VI, sechsstimmig, 4 Pommern 2 Krummhömer, 4 tiefe Flöten Tenor-Baßgambe
VII, siebenstimmig, 6 Sänger, 3 Pommern, Tenorposaune 2 Gamben
Psalm 12: Hilf, Herr, die heiligen haben abgenommen
I, sechsstimmig, 6 Sänger 3 Pommern 2 Krummhörner, 2 Posaunen
II, sechsstimmig, 6 Sänger, 3 Gamben 2 Dulciane, 2 Posaunen Großbaßflöfe
Psalm 13: Herr, wie lang
fünfstimmig, 5 Sänger Renaissance-Querflöte, 2 Dulciane, Altkrummhorn Fidel, Baßflöfe, Gambe
Psalm 86: Herr, neige deine Ohren
I, sechsstimmig, 6 Sänger Sopranquerflöte, Blockflöte, 2 Dulciane, 2 Gamben
II, sechsstimmig, 6 Sänger, 4 Pommern, 2 Fideln 2 Blockflöte
lll, sechsstimmig, 6 Sänger Sopranquerflöte, 4 Blockflöten, 2 Dulciane, Sopranpommer, 3 Gamben/ SchluB wie II
Instrumentalensemble Helga Weber auf historischen Instrumenten
SOLISTEN:
Soprano
Almut Teichert-Hailperin
Countertenor
Kevin Smith
Tenor
Wilfried Jochens
Martin Nitz
Bass
Philip Marsten
Hans-Jürgen Stellbrink
Hartmut Deutsch
Код:
Exact Audio Copy V0.99 prebeta 5 from 4. May 2009
Отчёт EAC об извлечении, выполненном 24. декабря 2009, 10:30
Instrumentalensemble Helga Weber auf historischen Instrumenten / Thomas Stolzer - Die deutschen Psalmen
Дисковод: HL-DT-STDVD-RAM GSA-H22L   Adapter: 2  ID: 0
Режим чтения                 : Достоверность
Использование точного потока : Да
Отключение кэша аудио        : Да
Использование указателей C2  : Нет
Коррекция смещения при чтении                     : 102
Способность читать области Lead-in и Lead-out     : Да
Заполнение пропущенных сэмплов тишиной            : Да
Удаление блоков с тишиной в начале и конце        : Нет
При вычислениях CRC использовались нулевые сэмплы : Да
Интерфейс                                         : Установленный внешний ASPI-интерфейс
Выходной формат : Внутренние WAV-операции
Формат сэмплов  : 44.100 Гц; 16 бит; стерео
TOC извлечённого CD
     Трек |   Старт  | Длительность | Начальный сектор | Конечный сектор
    ---------------------------------------------------------------------
       1  |  0:00.00 |    2:55.55   |           0      |      13179
       2  |  2:55.55 |    2:58.55   |       13180      |      26584
       3  |  5:54.35 |    2:26.30   |       26585      |      37564
       4  |  8:20.65 |    3:04.45   |       37565      |      51409
       5  | 11:25.35 |    3:42.47   |       51410      |      68106
       6  | 15:08.07 |    3:35.28   |       68107      |      84259
       7  | 18:43.35 |    3:53.65   |       84260      |     101799
       8  | 22:37.25 |    3:50.07   |      101800      |     119056
       9  | 26:27.32 |    5:05.68   |      119057      |     141999
      10  | 31:33.25 |    6:12.00   |      142000      |     169899
      11  | 37:45.25 |    4:19.40   |      169900      |     189364
      12  | 42:04.65 |    3:44.05   |      189365      |     206169
      13  | 45:48.70 |    5:03.65   |      206170      |     228959
Характеристики диапазона извлечения и сообщения об ошибках
Выбранный диапазон
     Имя файла W:\ProBit\1 No\Thomas Stolzer - Die deutschen Psalmen (Weber)\Thomas Stolzer - Die deutschen Psalmen.wav
     Пиковый уровень 98.6 %
     Качество диапазона 100.0 %
     CRC теста 747DDA69
     CRC копии 747DDA69
     Копирование... OK
Ошибок не произошло
AccurateRip: сводка
Трек  1  нет в базе данных
Трек  2  нет в базе данных
Трек  3  нет в базе данных
Трек  4  нет в базе данных
Трек  5  нет в базе данных
Трек  6  нет в базе данных
Трек  7  нет в базе данных
Трек  8  нет в базе данных
Трек  9  нет в базе данных
Трек 10  нет в базе данных
Трек 11  нет в базе данных
Трек 12  нет в базе данных
Трек 13  нет в базе данных
Ни одного трека нет в базе AccurateRip
Конец отчёта
Зарелизено на Torrents.ru
Рип с первоисточника
Выполнено Своими EAC-Граблями
Релиз произведён в свет силами


Скачать торрент 249.7 МБ


Download
Для скачивания .torrent файлов необходима регистрация
Сайт не распространяет и не хранит электронные версии произведений, а лишь предоставляет доступ к создаваемому пользователями каталогу ссылок на торрент-файлы, которые содержат только списки хеш-сумм

Страница 1 из 1

Ответить на тему

   Похожие торренты   Торрент 




cron