Регистрация ·  Логин: Пароль: Запомнить   · Забыли пароль?




Ответить на тему
Статистика раздачи
Размер: 242.3 МБ | Зарегистрирован: 10 мар 2018, 13:18 | .torrent скачан: 0 раз(а)
Сидеров: [ 2  | 0 байт/сек ]   Личеров: [ 1  | 0 байт/сек ]   DHT: [ 2 / 1 ]
Автор Сообщение

Модератор
Аватара пользователя

Стаж: 6 лет
Сообщения: 7870
Молдова

Сообщение 10 мар 2018, 13:18 

[Цитировать]

Gubaidulina: The Canticle of the Sun, Preludes for cello solo, In croce / Wispelwey / Губайдулина: Песнь солнцу, Прелюдии для виолончели соло, In croce / Виспельвей

Жанр: classical / chamber / cello
Год издания диска: 2004
Издатель (лейбл): Channel Classics
Аудиокодек: FLAC
Тип рипа: image+.cue
Битрейт аудио: lossless
Продолжительность: 67.02
Источник: собственный рип
Наличие сканов в содержимом раздачи: нет
Треклист:
Sofia Gubaidulina
1-19. The Canticle of the Sun (Sonnengesang), for cello, chorus & 2 percussionists
Pieter Wispelwey (cello), Collegium Vocale Gent, Members of the Prometheus Ensemble
Conducted by Daniel Reuss
Preludes for cello solo (1974)
20. Staccato - Legato
21. Legato - Staccato
22. Ricochet
23. Arco - Pizzicato
24. Pizzicato - Arco
25. In croce, for cello & bayan (1979)
Pieter Wispelwey (cello), An Raskin (bayan)
Исполнители:
Pieter Wispelwey (cello)
Collegium Vocale Gent
Members of the Prometheus Ensemble
Daniel Reuss (conductor)
An Raskin (bayan)
Код:
Exact Audio Copy V0.99 prebeta 5 from 4. May 2009
EAC extraction logfile from 9. October 2010, 16:06
Wispelwey / The Canticle of the Sun
Used drive  : Optiarc DVD RW AD-7200A   Adapter: 3  ID: 0
Read mode               : Secure
Utilize accurate stream : Yes
Defeat audio cache      : Yes
Make use of C2 pointers : No
Read offset correction                      : 48
Overread into Lead-In and Lead-Out          : No
Fill up missing offset samples with silence : Yes
Delete leading and trailing silent blocks   : No
Null samples used in CRC calculations       : Yes
Used interface                              : Native Win32 interface for Win NT & 2000
Used output format              : User Defined Encoder
Selected bitrate                : 384 kBit/s
Quality                         : High
Add ID3 tag                     : No
Command line compressor         : C:\Program Files\Exact Audio Copy\Flac\flac.exe
Additional command line options : -8  -V  %s
TOC of the extracted CD
     Track |   Start  |  Length  | Start sector | End sector
    ---------------------------------------------------------
        1  |  0:00.00 |  3:52.27 |         0    |    17426
        2  |  3:52.27 |  3:26.72 |     17427    |    32948
        3  |  7:19.24 |  1:34.03 |     32949    |    40001
        4  |  8:53.27 |  0:55.45 |     40002    |    44171
        5  |  9:48.72 |  1:04.00 |     44172    |    48971
        6  | 10:52.72 |  0:45.12 |     48972    |    52358
        7  | 11:38.09 |  0:44.09 |     52359    |    55667
        8  | 12:22.18 |  1:20.12 |     55668    |    61679
        9  | 13:42.30 |  0:45.63 |     61680    |    65117
       10  | 14:28.18 |  0:46.48 |     65118    |    68615
       11  | 15:14.66 |  2:34.60 |     68616    |    80225
       12  | 17:49.51 |  1:36.33 |     80226    |    87458
       13  | 19:26.09 |  1:57.35 |     87459    |    96268
       14  | 21:23.44 |  1:00.47 |     96269    |   100815
       15  | 22:24.16 |  3:24.74 |    100816    |   116189
       16  | 25:49.15 |  4:57.66 |    116190    |   138530
       17  | 30:47.06 |  3:40.39 |    138531    |   155069
       18  | 34:27.45 |  4:00.36 |    155070    |   173105
       19  | 38:28.06 |  2:25.60 |    173106    |   184040
       20  | 40:53.66 |  1:12.69 |    184041    |   189509
       21  | 42:06.60 |  2:19.03 |    189510    |   199937
       22  | 44:25.63 |  1:18.33 |    199938    |   205820
       23  | 45:44.21 |  1:13.69 |    205821    |   211364
       24  | 46:58.15 |  3:33.72 |    211365    |   227411
       25  | 50:32.12 | 16:31.72 |    227412    |   301808
Range status and errors
Selected range
     Filename D:\New Torrents\Gubaidulina\The Canticle of the Sun.wav
     Peak level 100.0 %
     Range quality 100.0 %
     Copy CRC 7D3BE3CC
     Copy OK
No errors occurred
AccurateRip summary
Track  1  accurately ripped (confidence 4)  [8BF30F39]
Track  2  accurately ripped (confidence 4)  [A4B9DC53]
Track  3  accurately ripped (confidence 4)  [E5FD45E2]
Track  4  accurately ripped (confidence 4)  [6ECFFACC]
Track  5  accurately ripped (confidence 4)  [07599A09]
Track  6  accurately ripped (confidence 4)  [E638518C]
Track  7  accurately ripped (confidence 4)  [E68B1D23]
Track  8  accurately ripped (confidence 4)  [A7ECD2FD]
Track  9  accurately ripped (confidence 4)  [B0441F3E]
Track 10  accurately ripped (confidence 4)  [1EB51E1E]
Track 11  accurately ripped (confidence 4)  [ED850466]
Track 12  accurately ripped (confidence 4)  [2602E475]
Track 13  accurately ripped (confidence 4)  [93A14F0E]
Track 14  accurately ripped (confidence 4)  [DCF9600A]
Track 15  accurately ripped (confidence 4)  [3A5E6FFF]
Track 16  accurately ripped (confidence 4)  [22FBF348]
Track 17  accurately ripped (confidence 4)  [AB868A6F]
Track 18  accurately ripped (confidence 4)  [E867655F]
Track 19  accurately ripped (confidence 4)  [C8191010]
Track 20  accurately ripped (confidence 4)  [ED7BD327]
Track 21  accurately ripped (confidence 4)  [61CFD938]
Track 22  accurately ripped (confidence 4)  [1AF68CA0]
Track 23  accurately ripped (confidence 4)  [6C5679C5]
Track 24  accurately ripped (confidence 4)  [1C1052D4]
Track 25  accurately ripped (confidence 4)  [D53A5EE6]
All tracks accurately ripped
End of status report


Скачать торрент 242.3 МБ


Download
Для скачивания .torrent файлов необходима регистрация
Сайт не распространяет и не хранит электронные версии произведений, а лишь предоставляет доступ к создаваемому пользователями каталогу ссылок на торрент-файлы, которые содержат только списки хеш-сумм

Страница 1 из 1

Ответить на тему

   Похожие торренты   Торрент 




cron