Регистрация ·  Логин: Пароль: Запомнить   · Забыли пароль?




Ответить на тему
Статистика раздачи
Размер: 198.83 МБ | Зарегистрирован: 10 мар 2018, 13:18 | .torrent скачан: 0 раз(а)
Сидеров: [ 3  | 0 байт/сек ]   Личеров: [ 1  | 0 байт/сек ]   DHT: [ 3 / 1 ]
Автор Сообщение

Модератор
Аватара пользователя

Стаж: 6 лет
Сообщения: 7870
Молдова

Сообщение 10 мар 2018, 13:18 

[Цитировать]



Lossless Group представляет:Schubert
Piano Sonata D958
Gesänge des Hafners D478
Totengräbers Heimweh D842
Fragments
Leif Ove Andsnes, Ian BostridgeЖанр: Classical/Piano/Vocal
Год выпуска диска: 2007
Производитель диска: Европа (EU)
Аудио кодек: FLAC
Тип рипа: image+.cue
Битрейт аудио: lossless
Продолжительность: 59:35
Комплектация: Для каждого диска: FLAC со встроенным cue, отдельные cue для wav и flac, .toc file для cdrdao, полный набор сканов, логи.
Релиз: hexonut [Lossless Group, rutracker.org]
Трэклист:
01. Schubert - Piano Sonata in C minor D958 - I Allegro (10:51)
02. II Adagio, sempre ligato (07:17)
03. III Menuetto: Allegro (03:18)
04. IV Allegro (08:16)
05. Gesänge des Harfners D478 - No.1 Wer sich der Einsamkeit ergibt" (04:02)
06. No.3 An die Türen will ich schleichen (01:53)
07. No.2 Wer nie sein Brot mit Tränen aß (04:02)
08. Totengräbers Heimweh D842" (06:05)
09. Fragments - Pflicht und Liebe D467 (01:26)
10. Allegretto D900 in C minor (01:56)
11. Lebensmut D937 (00:54)
12. Allegretto D346 in C (04:28)
13. Johanna Sebus D728 (02:20)
14. Andantino D348 in C (02:48)
Exact Audio Copy V0.99 prebeta 5 from 4. May 2009
EAC extraction logfile from 9. May 2010, 13:13
Leif Ove Andsnes - Ian Bostridge / Schubert - Piano Sonata D958 - Lieder
Used drive : LITE-ON LTR-40125S Adapter: 3 ID: 1
Read mode : Secure
Utilize accurate stream : Yes
Defeat audio cache : Yes
Make use of C2 pointers : No
Read offset correction : 12
Overread into Lead-In and Lead-Out : No
Fill up missing offset samples with silence : Yes
Delete leading and trailing silent blocks : No
Null samples used in CRC calculations : No
Used interface : Installed external ASPI interface
Used output format : Internal WAV Routines
Sample format : 44.100 Hz; 16 Bit; Stereo
TOC of the extracted CD
Track | Start | Length | Start sector | End sector
---------------------------------------------------------
1 | 0:00.00 | 10:50.50 | 0 | 48799
2 | 10:50.50 | 7:16.53 | 48800 | 81552
3 | 18:07.28 | 3:18.19 | 81553 | 96421
4 | 21:25.47 | 8:25.48 | 96422 | 134344
5 | 29:51.20 | 3:52.26 | 134345 | 151770
6 | 33:43.46 | 1:53.22 | 151771 | 160267
7 | 35:36.68 | 4:06.03 | 160268 | 178720
8 | 39:42.71 | 6:09.43 | 178721 | 206438
9 | 45:52.39 | 1:16.73 | 206439 | 212211
10 | 47:09.37 | 1:55.50 | 212212 | 220886
11 | 49:05.12 | 0:53.70 | 220887 | 224931
12 | 49:59.07 | 4:28.08 | 224932 | 245039
13 | 54:27.15 | 2:19.71 | 245040 | 255535
14 | 56:47.11 | 2:48.30 | 255536 | 268165
Range status and errors
Selected range
Filename Z:\data\mp3\Seeding\Schubert Sonata\Leif Ove Andsnes - Ian Bostridge - Schubert - Piano Sonata D958 - Lieder.wav
Peak level 97.8 %
Range quality 100.0 %
Test CRC A443DC3D
Copy CRC A443DC3D
Copy OK
No errors occurred
AccurateRip summary
Track 1 accurately ripped (confidence 2) [138B67C7]
Track 2 accurately ripped (confidence 2) [6B96862C]
Track 3 accurately ripped (confidence 2) [1CD63137]
Track 4 accurately ripped (confidence 2) [568EEFF7]
Track 5 accurately ripped (confidence 2) [F844F608]
Track 6 accurately ripped (confidence 2) [CFE8C407]
Track 7 accurately ripped (confidence 2) [D21814AA]
Track 8 accurately ripped (confidence 2) [454CBCAF]
Track 9 accurately ripped (confidence 2) [E4B45980]
Track 10 accurately ripped (confidence 2) [98C8BA27]
Track 11 accurately ripped (confidence 2) [5C5C414B]
Track 12 accurately ripped (confidence 2) [7A8FB7E0]
Track 13 accurately ripped (confidence 2) [92A73E6F]
Track 14 accurately ripped (confidence 2) [A98AE32E]
All tracks accurately ripped
End of status report
Доп. информация:
Leif Ove Andsnes, piano
Ian Bostridge, tenor (5-9, 11, 13)


Скачать торрент 198.83 МБ


Download
Для скачивания .torrent файлов необходима регистрация
Сайт не распространяет и не хранит электронные версии произведений, а лишь предоставляет доступ к создаваемому пользователями каталогу ссылок на торрент-файлы, которые содержат только списки хеш-сумм

Страница 1 из 1

Ответить на тему

   Похожие торренты   Торрент