Регистрация ·  Логин: Пароль: Запомнить   · Забыли пароль?




Ответить на тему
Статистика раздачи
Размер: 134.42 МБ | Зарегистрирован: 10 мар 2018, 13:18 | .torrent скачан: 0 раз(а)
Сидеров: [ 0  | 0 байт/сек ]   Личеров: [ 0  | 0 байт/сек ]   DHT: [ 0 / 0 ]
Автор Сообщение

Модератор
Аватара пользователя

Стаж: 6 лет
Сообщения: 7870
Молдова

Сообщение 10 мар 2018, 13:18 

[Цитировать]


Ives - Songs, Crumb - Elegiac Songs and Vocalises
Жанр: Vocal
Страна-производитель диска: USA
Год издания диска: 1987
Издатель (лейбл): Bridge Records, Inc.
Номер по каталогу: BCD 9006
Дата записи: 1982
Аудиокодек: FLAC
Тип рипа: image+.cue
Битрейт аудио: lossless
Продолжительность: 42.33
Источник: собственный рип
Наличие сканов в содержимом раздачи: да
Исполнители: Jan DeGaettani, mezzo-soprano, Gilbert Kalish, piano
Charles Ives
01. Down East
02. Two Little Flowers
Tom Sails Away
The See'r
Songs My Mother Taught Me
The Side Show
The White Gulls
West London
Afterglow
George Crumb
Apparition: Elegiac Songs and Vocalises for Soprano and Amplified Piano
10. I. The Night in Silence Under Many a Star
11. Vocalise I: Summer Sounds
12. II. When Lilacs Last in the Dooryard Bloom'd
13. III. Dark Mother Always Gliding with Soft Feet
14. Vocalise II: Invocation to the Dark Angel
15. IV. Approach Strong Deliveress!
16. Vocalise III: Death Carol
17. V. Come Lovely and Soothing Death
18. VI. The Night in Silence Under Many a Star
Total 42.33
Код:
Exact Audio Copy V0.99 prebeta 5 from 4. May 2009
Отчёт EAC об извлечении, выполненном 11. февраля 2012, 21:06
Jan DeGaetani, Gilbert Kalish / Ives - 9 Songs, Crumb - Apparition: Elegiac & Vocalises
Дисковод: _NEC    DVD_RW ND-3570A   Adapter: 3  ID: 0
Режим чтения                 : Достоверность
Использование точного потока : Да
Отключение кэша аудио        : Да
Использование указателей C2  : Нет
Коррекция смещения при чтении                     : 48
Способность читать области Lead-in и Lead-out     : Нет
Заполнение пропущенных сэмплов тишиной            : Да
Удаление блоков с тишиной в начале и конце        : Нет
При вычислениях CRC использовались нулевые сэмплы : Да
Интерфейс                                         : Установленный внешний ASPI-интерфейс
Выходной формат          : Пользовательский кодировщик
Выбранный битрейт        : 128 kBit/s
Качество                 : Высокий
Добавление ID3-тэга      : Нет
Утилита сжатия           : C:\Program Files\Exact Audio Copy\Flac\flac.exe
Дополнительные параметры : -8 -V -T "ARTIST=%a" -T "TITLE=%t" -T "ALBUM=%g" -T "DATE=%y" -T "TRACKNUMBER=%n" -T "GENRE=%m" -T "COMMENT=EAC FLAC -8" %s
TOC извлечённого CD
     Трек |   Старт  | Длительность | Начальный сектор | Конечный сектор
    ---------------------------------------------------------------------
       1  |  0:00.00 |    3:22.65   |           0      |      15214
       2  |  3:22.65 |    1:18.25   |       15215      |      21089
       3  |  4:41.15 |    2:55.15   |       21090      |      34229
       4  |  7:36.30 |    0:50.40   |       34230      |      38019
       5  |  8:26.70 |    2:32.27   |       38020      |      49446
       6  | 10:59.22 |    0:34.50   |       49447      |      52046
       7  | 11:33.72 |    2:50.58   |       52047      |      64854
       8  | 14:24.55 |    3:16.12   |       64855      |      79566
       9  | 17:40.67 |    2:07.15   |       79567      |      89106
      10  | 19:48.07 |    3:10.20   |       89107      |     103376
      11  | 22:58.27 |    1:01.48   |      103377      |     107999
      12  | 24:00.00 |    1:35.70   |      108000      |     115194
      13  | 25:35.70 |    2:59.47   |      115195      |     128666
      14  | 28:35.42 |    0:58.68   |      128667      |     133084
      15  | 29:34.35 |    2:07.00   |      133085      |     142609
      16  | 31:41.35 |    0:41.37   |      142610      |     145721
      17  | 32:22.72 |    6:20.25   |      145722      |     174246
      18  | 38:43.22 |    3:50.18   |      174247      |     191514
Характеристики диапазона извлечения и сообщения об ошибках
Выбранный диапазон
     Имя файла F:\Exact Audio Copy\Ives - 9 Songs, Crumb - Apparition - Jan DeGaetani, Gilbert Kalish\Jan DeGaetani, Gilbert Kalish - Ives - 9 Songs, Crumb - Apparition  Elegiac & Vocalises.wav
     Пиковый уровень 74.1 %
     Качество диапазона 100.0 %
     CRC теста FB69A43B
     CRC копии FB69A43B
     Копирование... OK
Ошибок не произошло
AccurateRip: сводка
Трек  1  нет в базе данных
Трек  2  нет в базе данных
Трек  3  нет в базе данных
Трек  4  нет в базе данных
Трек  5  нет в базе данных
Трек  6  нет в базе данных
Трек  7  нет в базе данных
Трек  8  нет в базе данных
Трек  9  нет в базе данных
Трек 10  нет в базе данных
Трек 11  нет в базе данных
Трек 12  нет в базе данных
Трек 13  нет в базе данных
Трек 14  нет в базе данных
Трек 15  нет в базе данных
Трек 16  нет в базе данных
Трек 17  нет в базе данных
Трек 18  нет в базе данных
Ни одного трека нет в базе AccurateRip
Конец отчёта


Скачать торрент 134.42 МБ


Download
Для скачивания .torrent файлов необходима регистрация
Сайт не распространяет и не хранит электронные версии произведений, а лишь предоставляет доступ к создаваемому пользователями каталогу ссылок на торрент-файлы, которые содержат только списки хеш-сумм

Страница 1 из 1

Ответить на тему

   Похожие торренты   Торрент 




cron