Регистрация ·  Логин: Пароль: Запомнить   · Забыли пароль?




Ответить на тему
Статистика раздачи
Размер: 535.98 МБ | Зарегистрирован: 10 мар 2018, 13:18 | .torrent скачан: 0 раз(а)
Сидеров: [ 0  | 0 байт/сек ]   Личеров: [ 0  | 0 байт/сек ]   DHT: [ 0 / 0 ]
Автор Сообщение

Модератор
Аватара пользователя

Стаж: 6 лет
Сообщения: 7870
Молдова

Сообщение 10 мар 2018, 13:18 

[Цитировать]

Franz Liszt
Christus


Жанр: Оратория
Производитель диска: MDG (Musikproduktion Dabringhaus und Grimm), Германия
Год выпуска: 2006
Аудио кодек: APE
Тип рипа: image+.cue
Битрейт аудио: lossless
Продолжительность: 65.56 + 51.00 + 55.22
Приложение: pdf
Формат записи: DDD
Запись: 17-19, 21-23 марта 2005 г., Heilig-Kreuz-Kirche Bad Godesberg
Источник: Собственная коллекция записей
Christus
Oratorio after latin texts out of the hoiy bible and
the liturgy for soloists, chorus, orchestra and organ

CD I:
Teil I: Weihnachts-Oratorium
CD II:
Teil II: Nach Epiphania
CD III:
Teil III: Passion und Auferstehung
Franziska Hirzel, soprano
Birgit Remmert, alto Donald Kaasch, tenor
Ralf Lukas, baritone (Christus)
Christoph Anselm Noll, organ
Czech Philharmonie Choir Brno
(Petr Fiala, chorus master)
Beethoven Orchester Bonn
Roman Kofman
Код:
Exact Audio Copy V0.99 prebeta 5 from 4. May 2009
Отчёт EAC об извлечении, выполненном 25. декабря 2009, 17:45
Roman Kofman - Beethoben Orchester Bonn; Hirzel, Remmet, Kaasch, Lukas / Franz Liszt - Christus CD 1
Дисковод: HL-DT-STDVD-RAM GSA-H22L   Adapter: 2  ID: 0
Режим чтения                 : Достоверность
Использование точного потока : Да
Отключение кэша аудио        : Да
Использование указателей C2  : Нет
Коррекция смещения при чтении                     : 102
Способность читать области Lead-in и Lead-out     : Да
Заполнение пропущенных сэмплов тишиной            : Да
Удаление блоков с тишиной в начале и конце        : Нет
При вычислениях CRC использовались нулевые сэмплы : Да
Интерфейс                                         : Установленный внешний ASPI-интерфейс
Выходной формат : Внутренние WAV-операции
Формат сэмплов  : 44.100 Гц; 16 бит; стерео
TOC извлечённого CD
     Трек |   Старт  | Длительность | Начальный сектор | Конечный сектор
    ---------------------------------------------------------------------
       1  |  0:00.00 |    5:24.48   |           0      |      24347
       2  |  5:24.48 |    8:53.15   |       24348      |      64337
       3  | 14:17.63 |    8:34.38   |       64338      |     102925
       4  | 22:52.26 |   14:37.67   |      102926      |     168767
       5  | 37:30.18 |    5:04.53   |      168768      |     191620
       6  | 42:34.71 |    9:20.28   |      191621      |     233648
       7  | 51:55.24 |    6:34.17   |      233649      |     263215
       8  | 58:29.41 |    7:24.38   |      263216      |     296553
Характеристики диапазона извлечения и сообщения об ошибках
Выбранный диапазон
     Имя файла W:\ProBit\1 No\Franz Liszt - Christus (Kofman; Hirzel, Remmet, Kaasch, Lukas)\Franz Liszt - Christus CD 1.wav
     Пиковый уровень 92.7 %
     Качество диапазона 100.0 %
     CRC теста 9B272BF7
     CRC копии 9B272BF7
     Копирование... OK
Ошибок не произошло
AccurateRip: сводка
Трек  1  нет в базе данных
Трек  2  нет в базе данных
Трек  3  нет в базе данных
Трек  4  нет в базе данных
Трек  5  нет в базе данных
Трек  6  нет в базе данных
Трек  7  нет в базе данных
Трек  8  нет в базе данных
Ни одного трека нет в базе AccurateRip
Конец отчёта
Код:
Exact Audio Copy V0.99 prebeta 5 from 4. May 2009
Отчёт EAC об извлечении, выполненном 25. декабря 2009, 20:53
Roman Kofman - Beethoben Orchester Bonn; Hirzel, Remmet, Kaasch, Lukas / Franz Liszt - Christus CD 2
Дисковод: HL-DT-STDVD-RAM GSA-H22L   Adapter: 2  ID: 0
Режим чтения                 : Достоверность
Использование точного потока : Да
Отключение кэша аудио        : Да
Использование указателей C2  : Нет
Коррекция смещения при чтении                     : 102
Способность читать области Lead-in и Lead-out     : Да
Заполнение пропущенных сэмплов тишиной            : Да
Удаление блоков с тишиной в начале и конце        : Нет
При вычислениях CRC использовались нулевые сэмплы : Да
Интерфейс                                         : Установленный внешний ASPI-интерфейс
Выходной формат : Внутренние WAV-операции
Формат сэмплов  : 44.100 Гц; 16 бит; стерео
TOC извлечённого CD
     Трек |   Старт  | Длительность | Начальный сектор | Конечный сектор
    ---------------------------------------------------------------------
       1  |  0:00.00 |   12:08.67   |           0      |      54666
       2  | 12:08.67 |    7:55.43   |       54667      |      90334
       3  | 20:04.35 |    5:45.17   |       90335      |     116226
       4  | 25:49.52 |    9:52.06   |      116227      |     160632
       5  | 35:41.58 |   15:16.71   |      160633      |     229403
Характеристики диапазона извлечения и сообщения об ошибках
Выбранный диапазон
     Имя файла W:\ProBit\1 No\Franz Liszt - Christus (Kofman; Hirzel, Remmet, Kaasch, Lukas)\Franz Liszt - Christus CD 2.wav
     Пиковый уровень 98.4 %
     Качество диапазона 100.0 %
     CRC теста E2C9271D
     CRC копии E2C9271D
     Копирование... OK
Ошибок не произошло
AccurateRip: сводка
Трек  1  нет в базе данных
Трек  2  нет в базе данных
Трек  3  нет в базе данных
Трек  4  нет в базе данных
Трек  5  нет в базе данных
Ни одного трека нет в базе AccurateRip
Конец отчёта
Код:
Exact Audio Copy V0.99 prebeta 5 from 4. May 2009
Отчёт EAC об извлечении, выполненном 25. декабря 2009, 21:39
Roman Kofman - Beethoben Orchester Bonn; Hirzel, Remmet, Kaasch, Lukas / Franz Liszt - Christus CD 3
Дисковод: HL-DT-STDVD-RAM GSA-H22L   Adapter: 2  ID: 0
Режим чтения                 : Достоверность
Использование точного потока : Да
Отключение кэша аудио        : Да
Использование указателей C2  : Нет
Коррекция смещения при чтении                     : 102
Способность читать области Lead-in и Lead-out     : Да
Заполнение пропущенных сэмплов тишиной            : Да
Удаление блоков с тишиной в начале и конце        : Нет
При вычислениях CRC использовались нулевые сэмплы : Да
Интерфейс                                         : Установленный внешний ASPI-интерфейс
Выходной формат : Внутренние WAV-операции
Формат сэмплов  : 44.100 Гц; 16 бит; стерео
TOC извлечённого CD
     Трек |   Старт  | Длительность | Начальный сектор | Конечный сектор
    ---------------------------------------------------------------------
       1  |  0:00.00 |   13:28.31   |           0      |      60630
       2  | 13:28.31 |    6:14.34   |       60631      |      88714
       3  | 19:42.65 |    4:17.01   |       88715      |     107990
       4  | 23:59.66 |    5:15.09   |      107991      |     131624
       5  | 29:15.00 |    4:12.07   |      131625      |     150531
       6  | 33:27.07 |    6:54.34   |      150532      |     181615
       7  | 40:21.41 |    3:55.43   |      181616      |     199283
       8  | 44:17.09 |    3:02.37   |      199284      |     212970
       9  | 47:19.46 |    2:10.58   |      212971      |     222778
      10  | 49:30.29 |    5:49.72   |      222779      |     249025
Характеристики диапазона извлечения и сообщения об ошибках
Выбранный диапазон
     Имя файла W:\ProBit\1 No\Franz Liszt - Christus (Kofman; Hirzel, Remmet, Kaasch, Lukas)\Franz Liszt - Christus CD 3.wav
     Пиковый уровень 98.3 %
     Качество диапазона 100.0 %
     CRC теста FACD5D4B
     CRC копии FACD5D4B
     Копирование... OK
Ошибок не произошло
AccurateRip: сводка
Трек  1  нет в базе данных
Трек  2  нет в базе данных
Трек  3  нет в базе данных
Трек  4  нет в базе данных
Трек  5  нет в базе данных
Трек  6  нет в базе данных
Трек  7  нет в базе данных
Трек  8  нет в базе данных
Трек  9  нет в базе данных
Трек 10  нет в базе данных
Ни одного трека нет в базе AccurateRip
Конец отчёта
Зарелизено на Torrents.ru
Рип с первоисточника
Выполнено Своими EAC-Граблями
Релиз произведён в свет силами


Скачать торрент 535.98 МБ


Download
Для скачивания .torrent файлов необходима регистрация
Сайт не распространяет и не хранит электронные версии произведений, а лишь предоставляет доступ к создаваемому пользователями каталогу ссылок на торрент-файлы, которые содержат только списки хеш-сумм

Страница 1 из 1

Ответить на тему

   Похожие торренты   Торрент 




cron