Регистрация ·  Логин: Пароль: Запомнить   · Забыли пароль?




Ответить на тему
Статистика раздачи
Размер: 275.3 МБ | Зарегистрирован: 10 мар 2018, 13:18 | .torrent скачан: 0 раз(а)
Сидеров: [ 0  | 0 байт/сек ]   Личеров: [ 0  | 0 байт/сек ]   DHT: [ 0 / 0 ]
Автор Сообщение

Модератор
Аватара пользователя

Стаж: 6 лет
Сообщения: 7870
Молдова

Сообщение 10 мар 2018, 13:18 

[Цитировать]

Henry Purcell - O solitude (Gerard Lesne, Il Seminario Musicale)

Жанр: Baroque / Vocal
Страна-производитель диска: EU
Год издания диска: 2003
Издатель (лейбл): Naive
Номер по каталогу: 8882
Дата записи: 2002
Аудиокодек: FLAC
Тип рипа: image+.cue
Битрейт аудио: lossless
Продолжительность: 59'09"
Источник: собственный рип
Наличие сканов в содержимом раздачи: да
Исполнители:
Gerard Lesne (alto)
Il Seminario Musicale
Bruno Cocset (basse de violon)
Blandine Rannou (clavecin et orgue positif)
Pascal Monteilhet (theorbe)
Enregistre: octobre 2002, Chapelle de l'ecole Sainte Genevieve, Versailles
01. O solitude, my sweetest choice! 6:06
02. If music be the food of love 3:42
03. The fatal hour comes on apace 3:29
04. What a sad fate is mine 3:40
05. While Thirsis, wrapp'd in downy sleep 1:50
06. Air instrumental: The Indian Queen 1:06
07. Air lent: Distressed Innocence 1:39
08. I attempt from love's sickness instrumental: The Indian Queen 1:26
09. Ask me to love no more 1:23
10. Beneath a dark and melancholy grove (Sappho's complaint) 3:27
11. If pray'rs and tears 7:02
12. Incassum Lesbia (The Queen's Epicidium) 7:23
13. In Cloris all soft charms agree 2:16
14. A thousand sev'ral ways I tried to hide 0:40
15. Intermede instrumental 0:54
16. Bacchus is a pow'r divine 3:06
17. Intermede instrumental 0:41
18. Song Tune instrumental 0:43
19. Young Thirsis' fate ye hills and groves deplore 5:10
20. An Evening Hymn (Now, now that the sun hath veil'd his light) 3:28
Код:
Exact Audio Copy V0.99 prebeta 5 from 4. May 2009
EAC extraction logfile from 8. November 2010, 19:54
Henry Purcell / O solitude & songs
Used drive  : Optiarc DVD RW AD-7203S   Adapter: 1  ID: 0
Read mode               : Secure
Utilize accurate stream : Yes
Defeat audio cache      : Yes
Make use of C2 pointers : No
Read offset correction                      : 48
Overread into Lead-In and Lead-Out          : No
Fill up missing offset samples with silence : Yes
Delete leading and trailing silent blocks   : No
Null samples used in CRC calculations       : Yes
Used interface                              : Installed external ASPI interface
Used output format              : User Defined Encoder
Selected bitrate                : 768 kBit/s
Quality                         : High
Add ID3 tag                     : No
Command line compressor         : J:\prog\Exact Audio Copy\Flac\flac.exe
Additional command line options : -8 -V %s
TOC of the extracted CD
     Track |   Start  |  Length  | Start sector | End sector
    ---------------------------------------------------------
        1  |  0:00.00 |  6:05.33 |         0    |    27407
        2  |  6:05.33 |  3:41.62 |     27408    |    44044
        3  |  9:47.20 |  3:28.46 |     44045    |    59690
        4  | 13:15.66 |  3:40.06 |     59691    |    76196
        5  | 16:55.72 |  1:50.53 |     76197    |    84499
        6  | 18:46.50 |  1:05.57 |     84500    |    89431
        7  | 19:52.32 |  1:38.69 |     89432    |    96850
        8  | 21:31.26 |  1:26.01 |     96851    |   103301
        9  | 22:57.27 |  1:23.11 |    103302    |   109537
       10  | 24:20.38 |  3:26.50 |    109538    |   125037
       11  | 27:47.13 |  7:01.60 |    125038    |   156672
       12  | 34:48.73 |  7:22.22 |    156673    |   189844
       13  | 42:11.20 |  2:15.36 |    189845    |   200005
       14  | 44:26.56 |  0:39.57 |    200006    |   202987
       15  | 45:06.38 |  0:40.69 |    202988    |   206056
       16  | 45:47.32 |  3:03.55 |    206057    |   219836
       17  | 48:51.12 |  0:54.12 |    219837    |   223898
       18  | 49:45.24 |  0:43.34 |    223899    |   227157
       19  | 50:28.58 |  5:09.50 |    227158    |   250382
       20  | 55:38.33 |  3:27.56 |    250383    |   265963
Range status and errors
Selected range
     Filename K:\@Results\Henry Purcell - O solitude & songs.wav
     Peak level 87.1 %
     Range quality 100.0 %
     Test CRC 31D40FDC
     Copy CRC 31D40FDC
     Copy OK
No errors occurred
End of status report


Скачать торрент 275.3 МБ


Download
Для скачивания .torrent файлов необходима регистрация
Сайт не распространяет и не хранит электронные версии произведений, а лишь предоставляет доступ к создаваемому пользователями каталогу ссылок на торрент-файлы, которые содержат только списки хеш-сумм

Страница 1 из 1

Ответить на тему

   Похожие торренты   Торрент 




cron