Регистрация ·  Логин: Пароль: Запомнить   · Забыли пароль?




Ответить на тему
Статистика раздачи
Размер: 395.36 МБ | Зарегистрирован: 10 мар 2018, 13:18 | .torrent скачан: 0 раз(а)
Сидеров: [ 0  | 0 байт/сек ]   Личеров: [ 0  | 0 байт/сек ]   DHT: [ 0 / 0 ]
Автор Сообщение

Модератор
Аватара пользователя

Стаж: 6 лет
Сообщения: 7870
Молдова

Сообщение 10 мар 2018, 13:18 

[Цитировать]

E.J. Moeran: Complete Solo Songs 2 CDs

Жанр: Vocal
Страна-производитель диска: England
Год издания диска: 2010
Издатель (лейбл): Chandos Records Ltd
Аудиокодек: FLAC
Тип рипа: tracks+.cue
Битрейт аудио: lossless
Продолжительность: 50:07; 1:08:30
Источник: demonoid.me
Наличие сканов в содержимом раздачи: нет
Треклист:
01 - Spring Goeth All In White
02 - When June is Come
03 - Mantle of Blue
04 - Twilight
05 - When Smoke Stood Up From Ludlow
06 - Farewell to barn and stack and tree
07 - Say, Lad, Have You things To Do
08 - The Lads in their hundreds
09 - The Bean Flower
10 - Impromptu in March
11 - In Youth Is Pleasure
12 - The Merry Month of May
13 - A Dream of Death
14 - Come Away, Death
15 - Troll the Bowl
16 - Can't You Dance the Polka
17 - Mrs Dyer, the Baby Farmer
18 - Maltworms
19 - Strings in the Earth and Air
20 - The Merry Green Wood
21 - Bright Cap
22 - The Pleasant Valley
23 - Donnycarney
24 - Rain has Fallen
25 - Now, O Now, in this Brown Land
01 - When I Came Last to Ludlow
02 - 'Tis Time, I Think, by Wenlock town
03 - Far in a Western Brookland
04 - Loveliest of Trees
05 - Oh Fair Enough are Sky and Plain (first version)
06 - Oh Fair Enough are Sky and Plain (second version)
07 - Oh Fair Enough are Sky and Plain (third version)
08 - Weep You No More
09 - The Sweet o' the Year
10 - The Day of Palms
11 - Blue-eyed Spring
12 - Rosefrail
13 - Tilly
14 - Rahoon
15 - Cherry Ripe
16 - Willow Songs
17 - The Constant Lover
18 - The Passionate Shepherd
19 - The Lover and his Lass
20 - Where the Bee Sucks
21 - When daisies pied
22 - When Icicles Hang by the Wall
23 - Diaphenia
24 - Rosaline
25 - The Monk's Fancy
26 - Invitation in Autumn
27 - If There Be Any Gods
28 - Evening
29 - The Poplars
30 - A Cottager
31 - The Dustman
32 - Lullaby
33 - The Herdsman
Исполнители:
Geraldine McGreevy - soprano
Adrian Thompson - tenor
Roderick Williams - baritone
John Talbot - piano
Код:
Exact Audio Copy V0.99 prebeta 5 from 4. May 2009
EAC extraction logfile from 18. December 2010, 21:47
E.J. Moeran / Complete Solo Songs - Disc One
Used drive  : ATAPI   iHAS324   B   Adapter: 1  ID: 0
Read mode               : Secure
Utilize accurate stream : Yes
Defeat audio cache      : Yes
Make use of C2 pointers : No
Read offset correction                      : 6
Overread into Lead-In and Lead-Out          : No
Fill up missing offset samples with silence : Yes
Delete leading and trailing silent blocks   : No
Null samples used in CRC calculations       : No
Used interface                              : Native Win32 interface for Win NT & 2000
Gap handling                                : Appended to previous track
Used output format              : User Defined Encoder
Selected bitrate                : 320 kBit/s
Quality                         : Low
Add ID3 tag                     : No
Command line compressor         : C:\Program Files\FLAC\flac.exe
Additional command line options : -8 -V -T "ARTIST=%a" -T "TITLE=%t" -T "ALBUM=%g" -T "DATE=%y" -T "TRACKNUMBER=%n" -T "TOTALTRACKS=%x" -T "GENRE=%m" -T "ALBUM ARTIST=%v" -T "ALBUMARTIST=%v" -T "COMMENT=EAC V0.99 prebeta 4, Secure Mode, Test & Copy, Accurat
TOC of the extracted CD
     Track |   Start  |  Length  | Start sector | End sector
    ---------------------------------------------------------
        1  |  0:00.00 |  1:21.00 |         0    |     6074
        2  |  1:21.00 |  1:11.00 |      6075    |    11399
        3  |  2:32.00 |  1:56.00 |     11400    |    20099
        4  |  4:28.00 |  1:48.00 |     20100    |    28199
        5  |  6:16.00 |  3:42.00 |     28200    |    44849
        6  |  9:58.00 |  2:37.00 |     44850    |    56624
        7  | 12:35.00 |  1:28.00 |     56625    |    63224
        8  | 14:03.00 |  1:51.00 |     63225    |    71549
        9  | 15:54.00 |  2:03.00 |     71550    |    80774
       10  | 17:57.00 |  1:10.00 |     80775    |    86024
       11  | 19:07.00 |  2:20.00 |     86025    |    96524
       12  | 21:27.00 |  2:01.00 |     96525    |   105599
       13  | 23:28.00 |  3:06.00 |    105600    |   119549
       14  | 26:34.00 |  2:17.00 |    119550    |   129824
       15  | 28:51.00 |  1:23.00 |    129825    |   136049
       16  | 30:14.00 |  1:23.00 |    136050    |   142274
       17  | 31:37.00 |  4:01.00 |    142275    |   160349
       18  | 35:38.00 |  2:19.00 |    160350    |   170774
       19  | 37:57.00 |  1:39.00 |    170775    |   178199
       20  | 39:36.00 |  1:11.00 |    178200    |   183524
       21  | 40:47.00 |  0:46.00 |    183525    |   186974
       22  | 41:33.00 |  1:25.00 |    186975    |   193349
       23  | 42:58.00 |  1:23.00 |    193350    |   199574
       24  | 44:21.00 |  1:47.00 |    199575    |   207599
       25  | 46:08.00 |  3:59.00 |    207600    |   225524
Track  1
     Filename C:\01 - Spring Goeth All In White.wav
     Pre-gap length  0:00:02.00
     Peak level 36.0 %
     Track quality 99.8 %
     Test CRC 9B0A5A3C
     Copy CRC 9B0A5A3C
     Copy OK
Track  2
     Filename C:\02 - When June is Come.wav
     Peak level 41.6 %
     Track quality 100.0 %
     Test CRC B5631372
     Copy CRC B5631372
     Copy OK
Track  3
     Filename C:\03 - Mantle of Blue.wav
     Peak level 25.7 %
     Track quality 100.0 %
     Test CRC DE1E1BCF
     Copy CRC DE1E1BCF
     Copy OK
Track  4
     Filename C:\04 - Twilight.wav
     Peak level 40.2 %
     Track quality 100.0 %
     Test CRC 685CF92F
     Copy CRC 685CF92F
     Copy OK
Track  5
     Filename C:\05 - Ludlow Town. 1. When Smoke Stood Up From Ludlow.wav
     Peak level 61.0 %
     Track quality 100.0 %
     Test CRC DE3089A4
     Copy CRC DE3089A4
     Copy OK
Track  6
     Filename C:\06 - Ludlow Town. 2. Farewell to barn and stack and tree.wav
     Peak level 45.3 %
     Track quality 100.0 %
     Test CRC DEA7500A
     Copy CRC DEA7500A
     Copy OK
Track  7
     Filename C:\07 - Ludlow Town. 3. Say, Lad, Have You things To Do.wav
     Peak level 50.2 %
     Track quality 99.8 %
     Test CRC 8CFCE224
     Copy CRC 8CFCE224
     Copy OK
Track  8
     Filename C:\08 - Ludlow Town. 4. The Lads in their hundreds.wav
     Peak level 50.4 %
     Track quality 100.0 %
     Test CRC DE6D0B2E
     Copy CRC DE6D0B2E
     Copy OK
Track  9
     Filename C:\09 - Two Songs. 1. The Bean Flower.wav
     Peak level 85.9 %
     Track quality 100.0 %
     Test CRC 7EBAD08D
     Copy CRC 7EBAD08D
     Copy OK
Track 10
     Filename C:\10 - Two Songs. 2. Impromptu in March.wav
     Peak level 62.2 %
     Track quality 100.0 %
     Test CRC A28DAB79
     Copy CRC A28DAB79
     Copy OK
Track 11
     Filename C:\11 - In Youth Is Pleasure.wav
     Peak level 49.9 %
     Track quality 100.0 %
     Test CRC AACF79F8
     Copy CRC AACF79F8
     Copy OK
Track 12
     Filename C:\12 - The Merry Month of May.wav
     Peak level 58.1 %
     Track quality 100.0 %
     Test CRC AF90F9DB
     Copy CRC AF90F9DB
     Copy OK
Track 13
     Filename C:\13 - A Dream of Death.wav
     Peak level 40.2 %
     Track quality 100.0 %
     Test CRC 67D22467
     Copy CRC 67D22467
     Copy OK
Track 14
     Filename C:\14 - Come Away, Death.wav
     Peak level 39.4 %
     Track quality 100.0 %
     Test CRC 206DD52D
     Copy CRC 206DD52D
     Copy OK
Track 15
     Filename C:\15 - Troll the Bowl.wav
     Peak level 75.6 %
     Track quality 99.8 %
     Test CRC 31628E5C
     Copy CRC 31628E5C
     Copy OK
Track 16
     Filename C:\16 - Can't You Dance the Polka.wav
     Peak level 80.2 %
     Track quality 99.8 %
     Test CRC 62732565
     Copy CRC 62732565
     Copy OK
Track 17
     Filename C:\17 - Mrs Dyer, the Baby Farmer.wav
     Peak level 94.4 %
     Track quality 100.0 %
     Test CRC 78F7F07C
     Copy CRC 78F7F07C
     Copy OK
Track 18
     Filename C:\18 - Maltworms.wav
     Peak level 65.6 %
     Track quality 100.0 %
     Test CRC 9EE85560
     Copy CRC 9EE85560
     Copy OK
Track 19
     Filename C:\19 - Seven Poems by James Joyce. 1. Strings in the Earth and Air.wav
     Peak level 27.2 %
     Track quality 100.0 %
     Test CRC 95BEE71A
     Copy CRC 95BEE71A
     Copy OK
Track 20
     Filename C:\20 - Seven Poems by James Joyce. 2. The Merry Green Wood.wav
     Peak level 53.3 %
     Track quality 100.0 %
     Test CRC 80B2990E
     Copy CRC 80B2990E
     Copy OK
Track 21
     Filename C:\21 - Seven Poems by James Joyce. 3. Bright Cap.wav
     Peak level 50.1 %
     Track quality 100.0 %
     Test CRC 517FC59D
     Copy CRC 517FC59D
     Copy OK
Track 22
     Filename C:\22 - Seven Poems by James Joyce. 4. The Pleasant Valley.wav
     Peak level 22.8 %
     Track quality 99.8 %
     Test CRC 188598C3
     Copy CRC 188598C3
     Copy OK
Track 23
     Filename C:\23 - Seven Poems by James Joyce. 5. Donnycarney.wav
     Peak level 37.2 %
     Track quality 99.8 %
     Test CRC 883ABD9A
     Copy CRC 883ABD9A
     Copy OK
Track 24
     Filename C:\24 - Seven Poems by James Joyce. 6. Rain has Fallen.wav
     Peak level 49.4 %
     Track quality 100.0 %
     Test CRC CE88991D
     Copy CRC CE88991D
     Copy OK
Track 25
     Filename C:\25 - Seven Poems by James Joyce. 7. Now, O Now, in this Brown Land.wav
     Peak level 32.6 %
     Track quality 100.0 %
     Test CRC 1F3BE4FF
     Copy CRC 1F3BE4FF
     Copy OK
No errors occurred
End of status report
Exact Audio Copy V0.99 prebeta 5 from 4. May 2009
EAC extraction logfile from 18. December 2010, 22:34
E.J. Moeran / Complete Solo Songs - Disc Two
Used drive  : ATAPI   iHAS324   B   Adapter: 1  ID: 0
Read mode               : Secure
Utilize accurate stream : Yes
Defeat audio cache      : Yes
Make use of C2 pointers : No
Read offset correction                      : 6
Overread into Lead-In and Lead-Out          : No
Fill up missing offset samples with silence : Yes
Delete leading and trailing silent blocks   : No
Null samples used in CRC calculations       : No
Used interface                              : Native Win32 interface for Win NT & 2000
Gap handling                                : Appended to previous track
Used output format              : User Defined Encoder
Selected bitrate                : 320 kBit/s
Quality                         : Low
Add ID3 tag                     : No
Command line compressor         : C:\Program Files\FLAC\flac.exe
Additional command line options : -8 -V -T "ARTIST=%a" -T "TITLE=%t" -T "ALBUM=%g" -T "DATE=%y" -T "TRACKNUMBER=%n" -T "TOTALTRACKS=%x" -T "GENRE=%m" -T "ALBUM ARTIST=%v" -T "ALBUMARTIST=%v" -T "COMMENT=EAC V0.99 prebeta 4, Secure Mode, Test & Copy, Accurat
TOC of the extracted CD
     Track |   Start  |  Length  | Start sector | End sector
    ---------------------------------------------------------
        1  |  0:00.00 |  1:17.00 |         0    |     5774
        2  |  1:17.00 |  1:31.00 |      5775    |    12599
        3  |  2:48.00 |  2:30.01 |     12600    |    23850
        4  |  5:18.01 |  1:41.00 |     23851    |    31425
        5  |  6:59.01 |  2:22.00 |     31426    |    42075
        6  |  9:21.01 |  2:25.00 |     42076    |    52950
        7  | 11:46.01 |  2:46.00 |     52951    |    65400
        8  | 14:32.01 |  2:15.00 |     65401    |    75525
        9  | 16:47.01 |  0:58.00 |     75526    |    79875
       10  | 17:45.01 |  3:18.00 |     79876    |    94725
       11  | 21:03.01 |  1:13.00 |     94726    |   100200
       12  | 22:16.01 |  1:18.00 |    100201    |   106050
       13  | 23:34.01 |  2:26.00 |    106051    |   117000
       14  | 26:00.01 |  3:04.00 |    117001    |   130800
       15  | 29:04.01 |  1:54.00 |    130801    |   139350
       16  | 30:58.01 |  1:30.00 |    139351    |   146100
       17  | 32:28.01 |  1:32.00 |    146101    |   153000
       18  | 34:00.01 |  3:15.00 |    153001    |   167625
       19  | 37:15.01 |  1:37.00 |    167626    |   174900
       20  | 38:52.01 |  1:28.00 |    174901    |   181500
       21  | 40:20.01 |  1:16.00 |    181501    |   187200
       22  | 41:36.01 |  1:12.00 |    187201    |   192600
       23  | 42:48.01 |  2:11.00 |    192601    |   202425
       24  | 44:59.01 |  3:25.00 |    202426    |   217800
       25  | 48:24.01 |  2:14.00 |    217801    |   227850
       26  | 50:38.01 |  4:10.00 |    227851    |   246600
       27  | 54:48.01 |  1:19.00 |    246601    |   252525
       28  | 56:07.01 |  1:59.00 |    252526    |   261450
       29  | 58:06.01 |  2:13.00 |    261451    |   271425
       30  | 60:19.01 |  2:02.00 |    271426    |   280575
       31  | 62:21.01 |  1:04.00 |    280576    |   285375
       32  | 63:25.01 |  2:29.00 |    285376    |   296550
       33  | 65:54.01 |  2:36.01 |    296551    |   308251
Track  1
     Filename C:\01 - When I Came Last to Ludlow.wav
     Pre-gap length  0:00:02.00
     Peak level 29.0 %
     Track quality 100.0 %
     Test CRC A1E59407
     Copy CRC A1E59407
     Copy OK
Track  2
     Filename C:\02 - 'Tis Time, I Think, by Wenlock town.wav
     Peak level 48.1 %
     Track quality 99.8 %
     Test CRC 16D5D87D
     Copy CRC 16D5D87D
     Copy OK
Track  3
     Filename C:\03 - Far in a Western Brookland.wav
     Peak level 39.8 %
     Track quality 100.0 %
     Test CRC 20063A8E
     Copy CRC 20063A8E
     Copy OK
Track  4
     Filename C:\04 - Loveliest of Trees.wav
     Peak level 35.1 %
     Track quality 100.0 %
     Test CRC 928DACB7
     Copy CRC 928DACB7
     Copy OK
Track  5
     Filename C:\05 - Oh Fair Enough are Sky and Plain (first version).wav
     Peak level 42.2 %
     Track quality 100.0 %
     Test CRC 2CDDC594
     Copy CRC 2CDDC594
     Copy OK
Track  6
     Filename C:\06 - Oh Fair Enough are Sky and Plain (second version).wav
     Peak level 47.5 %
     Track quality 100.0 %
     Test CRC B6E0A5D5
     Copy CRC B6E0A5D5
     Copy OK
Track  7
     Filename C:\07 - Oh Fair Enough are Sky and Plain (third version).wav
     Peak level 45.0 %
     Track quality 100.0 %
     Test CRC B39287E2
     Copy CRC B39287E2
     Copy OK
Track  8
     Filename C:\08 - Weep You No More.wav
     Peak level 31.0 %
     Track quality 100.0 %
     Test CRC 8BDB2108
     Copy CRC 8BDB2108
     Copy OK
Track  9
     Filename C:\09 - The Sweet o' the Year.wav
     Peak level 59.0 %
     Track quality 100.0 %
     Test CRC C5903270
     Copy CRC C5903270
     Copy OK
Track 10
     Filename C:\10 - The Day of Palms.wav
     Peak level 50.7 %
     Track quality 100.0 %
     Test CRC 4280D505
     Copy CRC 4280D505
     Copy OK
Track 11
     Filename C:\11 - Blue-eyed Spring.wav
     Peak level 55.9 %
     Track quality 100.0 %
     Test CRC BFA7AB89
     Copy CRC BFA7AB89
     Copy OK
Track 12
     Filename C:\12 - Rosefrail.wav
     Peak level 45.9 %
     Track quality 99.8 %
     Test CRC 2CE1F3CB
     Copy CRC 2CE1F3CB
     Copy OK
Track 13
     Filename C:\13 - Tilly.wav
     Peak level 67.2 %
     Track quality 100.0 %
     Test CRC F01443F9
     Copy CRC F01443F9
     Copy OK
Track 14
     Filename C:\14 - Rahoon.wav
     Peak level 38.8 %
     Track quality 100.0 %
     Test CRC C86C1265
     Copy CRC C86C1265
     Copy OK
Track 15
     Filename C:\15 - Four English Lyrics. 1. Cherry Ripe.wav
     Peak level 70.8 %
     Track quality 100.0 %
     Test CRC 98F31DD0
     Copy CRC 98F31DD0
     Copy OK
Track 16
     Filename C:\16 - Four English Lyrics. 2. Willow Songs.wav
     Peak level 29.7 %
     Track quality 99.8 %
     Test CRC E070F794
     Copy CRC E070F794
     Copy OK
Track 17
     Filename C:\17 - Four English Lyrics. 3. The Constant Lover.wav
     Peak level 49.1 %
     Track quality 100.0 %
     Test CRC E93280A9
     Copy CRC E93280A9
     Copy OK
Track 18
     Filename C:\18 - Four English Lyrics. 4. The Passionate Shepherd.wav
     Peak level 61.5 %
     Track quality 100.0 %
     Test CRC F4781A9A
     Copy CRC F4781A9A
     Copy OK
Track 19
     Filename C:\19 - Four Shakespeare Songs. 1. The Lover and his Lass.wav
     Peak level 63.2 %
     Track quality 100.0 %
     Test CRC 07FE9935
     Copy CRC 07FE9935
     Copy OK
Track 20
     Filename C:\20 - Four Shakespeare Songs. 2. Where the Bee Sucks.wav
     Peak level 43.3 %
     Track quality 99.8 %
     Test CRC 6E0237B0
     Copy CRC 6E0237B0
     Copy OK
Track 21
     Filename C:\21 - Four Shakespeare Songs. 3. When daisies pied.wav
     Peak level 71.7 %
     Track quality 100.0 %
     Test CRC D8011240
     Copy CRC D8011240
     Copy OK
Track 22
     Filename C:\22 - Four Shakespeare Songs. 4. When Icicles Hang by the Wall.wav
     Peak level 91.4 %
     Track quality 100.0 %
     Test CRC 04679FB2
     Copy CRC 04679FB2
     Copy OK
Track 23
     Filename C:\23 - Diaphenia.wav
     Peak level 51.2 %
     Track quality 100.0 %
     Test CRC E508BED9
     Copy CRC E508BED9
     Copy OK
Track 24
     Filename C:\24 - Rosaline.wav
     Peak level 52.3 %
     Track quality 100.0 %
     Test CRC 6B8696A6
     Copy CRC 6B8696A6
     Copy OK
Track 25
     Filename C:\25 - The Monk's Fancy.wav
     Peak level 42.7 %
     Track quality 100.0 %
     Test CRC B0295092
     Copy CRC B0295092
     Copy OK
Track 26
     Filename C:\26 - Invitation in Autumn.wav
     Peak level 37.5 %
     Track quality 100.0 %
     Test CRC F06368A3
     Copy CRC F06368A3
     Copy OK
Track 27
     Filename C:\27 - If There Be Any Gods.wav
     Peak level 75.4 %
     Track quality 99.8 %
     Test CRC 7D21D6EA
     Copy CRC 7D21D6EA
     Copy OK
Track 28
     Filename C:\28 - Six Poems of Seumas O'Sullivan. 1. Evening.wav
     Peak level 43.2 %
     Track quality 100.0 %
     Test CRC 025D0C1D
     Copy CRC 025D0C1D
     Copy OK
Track 29
     Filename C:\29 - Six Poems of Seumas O'Sullivan. 2. The Poplars.wav
     Peak level 28.8 %
     Track quality 100.0 %
     Test CRC CE01D13E
     Copy CRC CE01D13E
     Copy OK
Track 30
     Filename C:\30 - Six Poems of Seumas O'Sullivan. 3. A Cottager.wav
     Peak level 68.0 %
     Track quality 100.0 %
     Test CRC 320977E1
     Copy CRC 320977E1
     Copy OK
Track 31
     Filename C:\31 - Six Poems of Seumas O'Sullivan. 4. The Dustman.wav
     Peak level 61.0 %
     Track quality 100.0 %
     Test CRC B985A075
     Copy CRC B985A075
     Copy OK
Track 32
     Filename C:\32 - Six Poems of Seumas O'Sullivan. 5. Lullaby.wav
     Peak level 86.9 %
     Track quality 100.0 %
     Test CRC EDE295F2
     Copy CRC EDE295F2
     Copy OK
Track 33
     Filename C:\33 - Six Poems of Seumas O'Sullivan. 6. The Herdsman.wav
     Peak level 47.9 %
     Track quality 100.0 %
     Test CRC CBB70FF5
     Copy CRC CBB70FF5
     Copy OK
No errors occurred
End of status report
Код:
REM GENRE Classical
REM DATE 2010
REM DISCID 7F0BBF19
REM COMMENT "ExactAudioCopy v0.99pb5"
PERFORMER "E.J. Moeran"
TITLE "Complete Solo Songs - Disc One"
FILE "01 - Spring Goeth All In White.wav" WAVE
  TRACK 01 AUDIO
    TITLE "Spring Goeth All In White"
    PERFORMER "E.J. Moeran"
    FLAGS DCP
    INDEX 01 00:00:00
FILE "02 - When June is Come.wav" WAVE
  TRACK 02 AUDIO
    TITLE "When June is Come"
    PERFORMER "E.J. Moeran"
    FLAGS DCP
    INDEX 01 00:00:00
FILE "03 - Mantle of Blue.wav" WAVE
  TRACK 03 AUDIO
    TITLE "Mantle of Blue"
    PERFORMER "E.J. Moeran"
    FLAGS DCP
    INDEX 01 00:00:00
FILE "04 - Twilight.wav" WAVE
  TRACK 04 AUDIO
    TITLE "Twilight"
    PERFORMER "E.J. Moeran"
    FLAGS DCP
    INDEX 01 00:00:00
FILE "05 - Ludlow Town. 1. When Smoke Stood Up From Ludlow.wav" WAVE
  TRACK 05 AUDIO
    TITLE "Ludlow Town. 1. When Smoke Stood Up From Ludlow"
    PERFORMER "E.J. Moeran"
    FLAGS DCP
    INDEX 01 00:00:00
FILE "06 - Ludlow Town. 2. Farewell to barn and stack and tree.wav" WAVE
  TRACK 06 AUDIO
    TITLE "Ludlow Town. 2. Farewell to barn and stack and tree"
    PERFORMER "E.J. Moeran"
    FLAGS DCP
    INDEX 01 00:00:00
FILE "07 - Ludlow Town. 3. Say, Lad, Have You things To Do.wav" WAVE
  TRACK 07 AUDIO
    TITLE "Ludlow Town. 3. Say, Lad, Have You things To Do"
    PERFORMER "E.J. Moeran"
    FLAGS DCP
    INDEX 01 00:00:00
FILE "08 - Ludlow Town. 4. The Lads in their hundreds.wav" WAVE
  TRACK 08 AUDIO
    TITLE "Ludlow Town. 4. The Lads in their hundreds"
    PERFORMER "E.J. Moeran"
    FLAGS DCP
    INDEX 01 00:00:00
FILE "09 - Two Songs. 1. The Bean Flower.wav" WAVE
  TRACK 09 AUDIO
    TITLE "Two Songs. 1. The Bean Flower"
    PERFORMER "E.J. Moeran"
    FLAGS DCP
    INDEX 01 00:00:00
FILE "10 - Two Songs. 2. Impromptu in March.wav" WAVE
  TRACK 10 AUDIO
    TITLE "Two Songs. 2. Impromptu in March"
    PERFORMER "E.J. Moeran"
    FLAGS DCP
    INDEX 01 00:00:00
FILE "11 - In Youth Is Pleasure.wav" WAVE
  TRACK 11 AUDIO
    TITLE "In Youth Is Pleasure"
    PERFORMER "E.J. Moeran"
    FLAGS DCP
    INDEX 01 00:00:00
FILE "12 - The Merry Month of May.wav" WAVE
  TRACK 12 AUDIO
    TITLE "The Merry Month of May"
    PERFORMER "E.J. Moeran"
    FLAGS DCP
    INDEX 01 00:00:00
FILE "13 - A Dream of Death.wav" WAVE
  TRACK 13 AUDIO
    TITLE "A Dream of Death"
    PERFORMER "E.J. Moeran"
    FLAGS DCP
    INDEX 01 00:00:00
FILE "14 - Come Away, Death.wav" WAVE
  TRACK 14 AUDIO
    TITLE "Come Away, Death"
    PERFORMER "E.J. Moeran"
    FLAGS DCP
    INDEX 01 00:00:00
FILE "15 - Troll the Bowl.wav" WAVE
  TRACK 15 AUDIO
    TITLE "Troll the Bowl"
    PERFORMER "E.J. Moeran"
    FLAGS DCP
    INDEX 01 00:00:00
FILE "16 - Can't You Dance the Polka.wav" WAVE
  TRACK 16 AUDIO
    TITLE "Can't You Dance the Polka"
    PERFORMER "E.J. Moeran"
    FLAGS DCP
    INDEX 01 00:00:00
FILE "17 - Mrs Dyer, the Baby Farmer.wav" WAVE
  TRACK 17 AUDIO
    TITLE "Mrs Dyer, the Baby Farmer"
    PERFORMER "E.J. Moeran"
    FLAGS DCP
    INDEX 01 00:00:00
FILE "18 - Maltworms.wav" WAVE
  TRACK 18 AUDIO
    TITLE "Maltworms"
    PERFORMER "E.J. Moeran"
    FLAGS DCP
    INDEX 01 00:00:00
FILE "19 - Seven Poems by James Joyce. 1. Strings in the Earth and Air.wav" WAVE
  TRACK 19 AUDIO
    TITLE "Seven Poems by James Joyce. 1. Strings in the Earth and Air"
    PERFORMER "E.J. Moeran"
    FLAGS DCP
    INDEX 01 00:00:00
FILE "20 - Seven Poems by James Joyce. 2. The Merry Green Wood.wav" WAVE
  TRACK 20 AUDIO
    TITLE "Seven Poems by James Joyce. 2. The Merry Green Wood"
    PERFORMER "E.J. Moeran"
    FLAGS DCP
    INDEX 01 00:00:00
FILE "21 - Seven Poems by James Joyce. 3. Bright Cap.wav" WAVE
  TRACK 21 AUDIO
    TITLE "Seven Poems by James Joyce. 3. Bright Cap"
    PERFORMER "E.J. Moeran"
    FLAGS DCP
    INDEX 01 00:00:00
FILE "22 - Seven Poems by James Joyce. 4. The Pleasant Valley.wav" WAVE
  TRACK 22 AUDIO
    TITLE "Seven Poems by James Joyce. 4. The Pleasant Valley"
    PERFORMER "E.J. Moeran"
    FLAGS DCP
    INDEX 01 00:00:00
FILE "23 - Seven Poems by James Joyce. 5. Donnycarney.wav" WAVE
  TRACK 23 AUDIO
    TITLE "Seven Poems by James Joyce. 5. Donnycarney"
    PERFORMER "E.J. Moeran"
    FLAGS DCP
    INDEX 01 00:00:00
FILE "24 - Seven Poems by James Joyce. 6. Rain has Fallen.wav" WAVE
  TRACK 24 AUDIO
    TITLE "Seven Poems by James Joyce. 6. Rain has Fallen"
    PERFORMER "E.J. Moeran"
    FLAGS DCP
    INDEX 01 00:00:00
FILE "25 - Seven Poems by James Joyce. 7. Now, O Now, in this Brown Land.wav" WAVE
  TRACK 25 AUDIO
    TITLE "Seven Poems by James Joyce. 7. Now, O Now, in this Brown Land"
    PERFORMER "E.J. Moeran"
    FLAGS DCP
    INDEX 01 00:00:00
REM GENRE Classical
REM DATE 2010
REM DISCID C9100E21
REM COMMENT "ExactAudioCopy v0.99pb5"
PERFORMER "E.J. Moeran"
TITLE "Complete Solo Songs - Disc Two"
FILE "01 - When I Came Last to Ludlow.wav" WAVE
  TRACK 01 AUDIO
    TITLE "When I Came Last to Ludlow"
    PERFORMER "E.J. Moeran"
    FLAGS DCP
    INDEX 01 00:00:00
FILE "02 - 'Tis Time, I Think, by Wenlock town.wav" WAVE
  TRACK 02 AUDIO
    TITLE "'Tis Time, I Think, by Wenlock town"
    PERFORMER "E.J. Moeran"
    FLAGS DCP
    INDEX 01 00:00:00
FILE "03 - Far in a Western Brookland.wav" WAVE
  TRACK 03 AUDIO
    TITLE "Far in a Western Brookland"
    PERFORMER "E.J. Moeran"
    FLAGS DCP
    INDEX 01 00:00:00
FILE "04 - Loveliest of Trees.wav" WAVE
  TRACK 04 AUDIO
    TITLE "Loveliest of Trees"
    PERFORMER "E.J. Moeran"
    FLAGS DCP
    INDEX 01 00:00:00
FILE "05 - Oh Fair Enough are Sky and Plain (first version).wav" WAVE
  TRACK 05 AUDIO
    TITLE "Oh Fair Enough are Sky and Plain (first version)"
    PERFORMER "E.J. Moeran"
    FLAGS DCP
    INDEX 01 00:00:00
FILE "06 - Oh Fair Enough are Sky and Plain (second version).wav" WAVE
  TRACK 06 AUDIO
    TITLE "Oh Fair Enough are Sky and Plain (second version)"
    PERFORMER "E.J. Moeran"
    FLAGS DCP
    INDEX 01 00:00:00
FILE "07 - Oh Fair Enough are Sky and Plain (third version).wav" WAVE
  TRACK 07 AUDIO
    TITLE "Oh Fair Enough are Sky and Plain (third version)"
    PERFORMER "E.J. Moeran"
    FLAGS DCP
    INDEX 01 00:00:00
FILE "08 - Weep You No More.wav" WAVE
  TRACK 08 AUDIO
    TITLE "Weep You No More"
    PERFORMER "E.J. Moeran"
    FLAGS DCP
    INDEX 01 00:00:00
FILE "09 - The Sweet o' the Year.wav" WAVE
  TRACK 09 AUDIO
    TITLE "The Sweet o' the Year"
    PERFORMER "E.J. Moeran"
    FLAGS DCP
    INDEX 01 00:00:00
FILE "10 - The Day of Palms.wav" WAVE
  TRACK 10 AUDIO
    TITLE "The Day of Palms"
    PERFORMER "E.J. Moeran"
    FLAGS DCP
    INDEX 01 00:00:00
FILE "11 - Blue-eyed Spring.wav" WAVE
  TRACK 11 AUDIO
    TITLE "Blue-eyed Spring"
    PERFORMER "E.J. Moeran"
    FLAGS DCP
    INDEX 01 00:00:00
FILE "12 - Rosefrail.wav" WAVE
  TRACK 12 AUDIO
    TITLE "Rosefrail"
    PERFORMER "E.J. Moeran"
    FLAGS DCP
    INDEX 01 00:00:00
FILE "13 - Tilly.wav" WAVE
  TRACK 13 AUDIO
    TITLE "Tilly"
    PERFORMER "E.J. Moeran"
    FLAGS DCP
    INDEX 01 00:00:00
FILE "14 - Rahoon.wav" WAVE
  TRACK 14 AUDIO
    TITLE "Rahoon"
    PERFORMER "E.J. Moeran"
    FLAGS DCP
    INDEX 01 00:00:00
FILE "15 - Four English Lyrics. 1. Cherry Ripe.wav" WAVE
  TRACK 15 AUDIO
    TITLE "Four English Lyrics. 1. Cherry Ripe"
    PERFORMER "E.J. Moeran"
    FLAGS DCP
    INDEX 01 00:00:00
FILE "16 - Four English Lyrics. 2. Willow Songs.wav" WAVE
  TRACK 16 AUDIO
    TITLE "Four English Lyrics. 2. Willow Songs"
    PERFORMER "E.J. Moeran"
    FLAGS DCP
    INDEX 01 00:00:00
FILE "17 - Four English Lyrics. 3. The Constant Lover.wav" WAVE
  TRACK 17 AUDIO
    TITLE "Four English Lyrics. 3. The Constant Lover"
    PERFORMER "E.J. Moeran"
    FLAGS DCP
    INDEX 01 00:00:00
FILE "18 - Four English Lyrics. 4. The Passionate Shepherd.wav" WAVE
  TRACK 18 AUDIO
    TITLE "Four English Lyrics. 4. The Passionate Shepherd"
    PERFORMER "E.J. Moeran"
    FLAGS DCP
    INDEX 01 00:00:00
FILE "19 - Four Shakespeare Songs. 1. The Lover and his Lass.wav" WAVE
  TRACK 19 AUDIO
    TITLE "Four Shakespeare Songs. 1. The Lover and his Lass"
    PERFORMER "E.J. Moeran"
    FLAGS DCP
    INDEX 01 00:00:00
FILE "20 - Four Shakespeare Songs. 2. Where the Bee Sucks.wav" WAVE
  TRACK 20 AUDIO
    TITLE "Four Shakespeare Songs. 2. Where the Bee Sucks"
    PERFORMER "E.J. Moeran"
    FLAGS DCP
    INDEX 01 00:00:00
FILE "21 - Four Shakespeare Songs. 3. When daisies pied.wav" WAVE
  TRACK 21 AUDIO
    TITLE "Four Shakespeare Songs. 3. When daisies pied"
    PERFORMER "E.J. Moeran"
    FLAGS DCP
    INDEX 01 00:00:00
FILE "22 - Four Shakespeare Songs. 4. When Icicles Hang by the Wall.wav" WAVE
  TRACK 22 AUDIO
    TITLE "Four Shakespeare Songs. 4. When Icicles Hang by the Wall"
    PERFORMER "E.J. Moeran"
    FLAGS DCP
    INDEX 01 00:00:00
FILE "23 - Diaphenia.wav" WAVE
  TRACK 23 AUDIO
    TITLE "Diaphenia"
    PERFORMER "E.J. Moeran"
    FLAGS DCP
    INDEX 01 00:00:00
FILE "24 - Rosaline.wav" WAVE
  TRACK 24 AUDIO
    TITLE "Rosaline"
    PERFORMER "E.J. Moeran"
    FLAGS DCP
    INDEX 01 00:00:00
FILE "25 - The Monk's Fancy.wav" WAVE
  TRACK 25 AUDIO
    TITLE "The Monk's Fancy"
    PERFORMER "E.J. Moeran"
    FLAGS DCP
    INDEX 01 00:00:00
FILE "26 - Invitation in Autumn.wav" WAVE
  TRACK 26 AUDIO
    TITLE "Invitation in Autumn"
    PERFORMER "E.J. Moeran"
    FLAGS DCP
    INDEX 01 00:00:00
FILE "27 - If There Be Any Gods.wav" WAVE
  TRACK 27 AUDIO
    TITLE "If There Be Any Gods"
    PERFORMER "E.J. Moeran"
    FLAGS DCP
    INDEX 01 00:00:00
FILE "28 - Six Poems of Seumas O'Sullivan. 1. Evening.wav" WAVE
  TRACK 28 AUDIO
    TITLE "Six Poems of Seumas O'Sullivan. 1. Evening"
    PERFORMER "E.J. Moeran"
    FLAGS DCP
    INDEX 01 00:00:00
FILE "29 - Six Poems of Seumas O'Sullivan. 2. The Poplars.wav" WAVE
  TRACK 29 AUDIO
    TITLE "Six Poems of Seumas O'Sullivan. 2. The Poplars"
    PERFORMER "E.J. Moeran"
    FLAGS DCP
    INDEX 01 00:00:00
FILE "30 - Six Poems of Seumas O'Sullivan. 3. A Cottager.wav" WAVE
  TRACK 30 AUDIO
    TITLE "Six Poems of Seumas O'Sullivan. 3. A Cottager"
    PERFORMER "E.J. Moeran"
    FLAGS DCP
    INDEX 01 00:00:00
FILE "31 - Six Poems of Seumas O'Sullivan. 4. The Dustman.wav" WAVE
  TRACK 31 AUDIO
    TITLE "Six Poems of Seumas O'Sullivan. 4. The Dustman"
    PERFORMER "E.J. Moeran"
    FLAGS DCP
    INDEX 01 00:00:00
FILE "32 - Six Poems of Seumas O'Sullivan. 5. Lullaby.wav" WAVE
  TRACK 32 AUDIO
    TITLE "Six Poems of Seumas O'Sullivan. 5. Lullaby"
    PERFORMER "E.J. Moeran"
    FLAGS DCP
    INDEX 01 00:00:00
FILE "33 - Six Poems of Seumas O'Sullivan. 6. The Herdsman.wav" WAVE
  TRACK 33 AUDIO
    TITLE "Six Poems of Seumas O'Sullivan. 6. The Herdsman"
    PERFORMER "E.J. Moeran"
    FLAGS DCP
    INDEX 01 00:00:00


Скачать торрент 395.36 МБ


Download
Для скачивания .torrent файлов необходима регистрация
Сайт не распространяет и не хранит электронные версии произведений, а лишь предоставляет доступ к создаваемому пользователями каталогу ссылок на торрент-файлы, которые содержат только списки хеш-сумм

Страница 1 из 1

Ответить на тему

   Похожие торренты   Торрент 




cron