Регистрация ·  Логин: Пароль: Запомнить   · Забыли пароль?




Ответить на тему
Статистика раздачи
Размер: 293.3 МБ | Зарегистрирован: 10 мар 2018, 13:18 | .torrent скачан: 0 раз(а)
Сидеров: [ 0  | 0 байт/сек ]   Личеров: [ 0  | 0 байт/сек ]   DHT: [ 0 / 0 ]
Автор Сообщение

Модератор
Аватара пользователя

Стаж: 6 лет
Сообщения: 7870
Молдова

Сообщение 10 мар 2018, 13:18 

[Цитировать]

Heinrich Marschner - Lieder und Balladen, Love Songs & Ballads (Steven Kimbrough, Dalton Baldwin)

Жанр: Classical
Год издания диска: 2000
Издатель (лейбл): Koch-Schwann
Номер по каталогу: 3-6742-2
Аудиокодек: FLAC
Тип рипа: image+.cue
Битрейт аудио: lossless
Продолжительность: 01:15:04
Источник: скачано из сети
Наличие сканов в содержимом раздачи: да
Треклист:
1 Treu, süßes Mädchen 3:14
2 Komm, komm, und fort 3:08
3 O kühler Wald 3:18
4 Der König von Thule 4:15
5 Trennung 2:47
6 Leonore 1:16
7 Das Flämmchen auf der Haide 2:39
8 Die sieben Freier 1:54
9 Sängers Genesung 3:35
10 Der Fischerknabe 1:29
11 Mein Lieb ist ein Bächlein 3:38
12 Nachtgesang 3:09
13 Die Rache 1:37
14 Auf die Berge muß ich gehen 1:33
15 Er liebt und reitet fort 2:41
16 Marchese del Orco 1:17
17 Im Frühling 2:29
18 War eine Ratt' im Kellernest 1:55
19 Serenade 6:34
20 Nach 'Reimar der Alte' 1:55
21 Tanzlied 3:10
22 Ja, du bist mein 3:05
23 O wie so weit 3:34
24 Der Prager Musikant 3:59
25 Der betrogene Teufel 2:27
26 Ave Maria 4:25
Recorded January 1996, DeutschlandRadio Köln
Исполнители:
Steven Kimbrough, Baritone
Dalton Baldwin, Piano
Код:
Exact Audio Copy V1.0 beta 3 from 29. August 2011
EAC extraction logfile from 13. August 2013, 18:28
Steven Kimbrough, Baritone - Dalton Baldwin, Piano / Marschner: Love Songs & Ballads
Used drive : PIONEER BD-RW BDR-206 Adapter: 0 ID: 2
Read mode : Secure
Utilize accurate stream : Yes
Defeat audio cache : Yes
Make use of C2 pointers : No
Read offset correction : 667
Overread into Lead-In and Lead-Out : No
Fill up missing offset samples with silence : Yes
Delete leading and trailing silent blocks : No
Null samples used in CRC calculations : Yes
Used interface : Native Win32 interface for Win NT & 2000
Used output format : User Defined Encoder
Selected bitrate : 1024 kBit/s
Quality : High
Add ID3 tag : Yes
Command line compressor : C:\Program Files\FLAC\flac.exe
Additional command line options : -5 -T "Artist=%artist%" -T "Title=%title%" -T "Album=%albumtitle%" -T "Date=%year%" -T "Tracknumber=%tracknr%" -T "Genre=%genre%" %source% -o %dest%
TOC of the extracted CD
Track | Start | Length | Start sector | End sector
---------------------------------------------------------
1 | 0:00.00 | 3:14.07 | 0 | 14556
2 | 3:14.07 | 3:07.65 | 14557 | 28646
3 | 6:21.72 | 3:18.18 | 28647 | 43514
4 | 9:40.15 | 4:15.05 | 43515 | 62644
5 | 13:55.20 | 2:47.07 | 62645 | 75176
6 | 16:42.27 | 1:15.50 | 75177 | 80851
7 | 17:58.02 | 2:38.40 | 80852 | 92741
8 | 20:36.42 | 1:54.00 | 92742 | 101291
9 | 22:30.42 | 3:34.70 | 101292 | 117411
10 | 26:05.37 | 1:28.40 | 117412 | 124051
11 | 27:34.02 | 3:37.40 | 124052 | 140366
12 | 31:11.42 | 3:08.38 | 140367 | 154504
13 | 34:20.05 | 1:36.50 | 154505 | 161754
14 | 35:56.55 | 1:33.07 | 161755 | 168736
15 | 37:29.62 | 2:40.73 | 168737 | 180809
16 | 40:10.60 | 1:16.72 | 180810 | 186581
17 | 41:27.57 | 2:29.15 | 186582 | 197771
18 | 43:56.72 | 1:54.63 | 197772 | 206384
19 | 45:51.60 | 6:34.00 | 206385 | 235934
20 | 52:25.60 | 1:55.22 | 235935 | 244581
21 | 54:21.07 | 3:09.68 | 244582 | 258824
22 | 57:31.00 | 3:05.02 | 258825 | 272701
23 | 60:36.02 | 3:34.13 | 272702 | 288764
24 | 64:10.15 | 3:59.02 | 288765 | 306691
25 | 68:09.17 | 2:26.63 | 306692 | 317704
26 | 70:36.05 | 4:24.70 | 317705 | 337574
Range status and errors
Selected range
Filename F:\=== VINYL RIPS ===\=== EAC===\X FRESH RIP\Marschner- Kimbrough, Baldwin - Love Songs & Ballads.wav
Peak level 78.3 %
Extraction speed 1.4 X
Range quality 100.0 %
Test CRC 28C84FCB
Copy CRC 28C84FCB
Copy OK
No errors occurred
AccurateRip summary
Track 1 not present in database
Track 2 not present in database
Track 3 not present in database
Track 4 not present in database
Track 5 not present in database
Track 6 not present in database
Track 7 not present in database
Track 8 not present in database
Track 9 not present in database
Track 10 not present in database
Track 11 not present in database
Track 12 not present in database
Track 13 not present in database
Track 14 not present in database
Track 15 not present in database
Track 16 not present in database
Track 17 not present in database
Track 18 not present in database
Track 19 not present in database
Track 20 not present in database
Track 21 not present in database
Track 22 not present in database
Track 23 not present in database
Track 24 not present in database
Track 25 not present in database
Track 26 not present in database
None of the tracks are present in the AccurateRip database
End of status report
---- CUETools DB Plugin V2.1.3
[CTDB TOCID: DcVfb9prmRJsXSjOLTNzr4ecOLk-] disk not present in database, Submit result: DcVfb9prmRJsXSjOLTNzr4ecOLk- has been uploaded
==== Log checksum AAC43B75F3FC8BBB5B01CDA92390E21D6CFD7F619928088131ED778474775138 ====
mp3


Скачать торрент 293.3 МБ


Download
Для скачивания .torrent файлов необходима регистрация
Сайт не распространяет и не хранит электронные версии произведений, а лишь предоставляет доступ к создаваемому пользователями каталогу ссылок на торрент-файлы, которые содержат только списки хеш-сумм

Страница 1 из 1

Ответить на тему

   Похожие торренты   Торрент