Регистрация ·  Логин: Пароль: Запомнить   · Забыли пароль?




Ответить на тему
Статистика раздачи
Размер: 230.58 МБ | Зарегистрирован: 10 мар 2018, 13:18 | .torrent скачан: 0 раз(а)
Сидеров: [ 0  | 0 байт/сек ]   Личеров: [ 0  | 0 байт/сек ]   DHT: [ 0 / 0 ]
Автор Сообщение

Модератор
Аватара пользователя

Стаж: 6 лет
Сообщения: 7870
Молдова

Сообщение 10 мар 2018, 13:18 

[Цитировать]

Albert Lortzing - An den Frühling

Жанр: Classical/Vocal
Страна-производитель диска: Germany
Год издания диска: 2002
Издатель (лейбл): MDG
Номер по каталогу: 622 1105-2
Дата записи: 2001
Аудиокодек: APE
Тип рипа: image+.cue
Битрейт аудио: lossless
Продолжительность: 01:09:37
Источник: скачано с avaxhome
Наличие сканов в содержимом раздачи: нет
Треклист:
[Ernste und heitere Festgesänge LoWV 67]
01. An den Frühling [0:02:19.10]
02. Das hab ich [0:04:09.02]
03. Gratulation [0:03:04.63]
04. Toast den Damen [0:02:00.57]
05. Den Neuvermählten [0:03:49.18]
06. Die verlorene Rippe [0:02:17.52]
[Chöre für die Freimaurerloge LoWV 19]
07. Großer Meister [0:02:56.20]
08. Schwöret Brüdertreu [0:01:40.00]
09. Bedenke wohl [0:01:15.05]
10. Ahnungsvoll [0:04:47.10]
11. Trauerchor "Herr der Welt" [0:03:10.63]
12. Kommt Brüder [0:02:54.55]
[Drei scherzhafte Gesänge LoWV 104]
13. Du, mit dem Frühlingsangesichte [0:03:01.12]
14. Walzerlied [0:03:12.70]
15. Des Hauptmanns Wunsch [0:03:39.70]
[Drei besinnliche Gesänge (1850)]
16. Scheiden, Leiden [0:04:12.73]
17. Morgen wieder [0:03:42.30]
18. Spielmanns Lied [0:04:50.20]
19. Lebe wohl, mein flandrisch Mädchen LoWV 84 [0:03:15.40]
20. Würde der Frauen LoWV A-2 [0:01:40.55]
21. Tonkunst LoWV 79 [0:01:40.10]
22. Jaglied aus "Wildschütz" LoWV 585 [0:02:31.12]
Исполнители:
Neue Detmolder Liedertafel, Detmolder Hornisten
Код:
Exact Audio Copy V1.0 beta 3 from 29. August 2011
EAC extraction logfile from 13. June 2012, 17:03
Neue Detmolder Liedertafel / Lortzing: An den Frühling
Used drive  : PIONEER BD-RW   BDR-206   Adapter: 2  ID: 3
Read mode               : Secure
Utilize accurate stream : Yes
Defeat audio cache      : Yes
Make use of C2 pointers : No
Read offset correction                      : 667
Overread into Lead-In and Lead-Out          : No
Fill up missing offset samples with silence : Yes
Delete leading and trailing silent blocks   : No
Null samples used in CRC calculations       : Yes
Used interface                              : Native Win32 interface for Win NT & 2000
Used output format              : User Defined Encoder
Selected bitrate                : 896 kBit/s
Quality                         : High
Add ID3 tag                     : No
Command line compressor         : C:\Program Files\FLAC\flac.exe
Additional command line options : -5 -T "Artist=%artist%" -T "Title=%title%" -T "Album=%albumtitle%" -T "Date=%year%" -T "Tracknumber=%tracknr%" -T "Genre=%genre%" %source% -o %dest%
TOC of the extracted CD
     Track |   Start  |  Length  | Start sector | End sector
    ---------------------------------------------------------
        1  |  0:00.00 |  2:19.10 |         0    |    10434
        2  |  2:19.10 |  4:09.02 |     10435    |    29111
        3  |  6:28.12 |  3:04.63 |     29112    |    42974
        4  |  9:33.00 |  2:00.57 |     42975    |    52031
        5  | 11:33.57 |  3:49.18 |     52032    |    69224
        6  | 15:23.00 |  2:17.52 |     69225    |    79551
        7  | 17:40.52 |  2:56.20 |     79552    |    92771
        8  | 20:36.72 |  1:40.00 |     92772    |   100271
        9  | 22:16.72 |  1:15.05 |    100272    |   105901
       10  | 23:32.02 |  4:47.10 |    105902    |   127436
       11  | 28:19.12 |  3:10.63 |    127437    |   141749
       12  | 31:30.00 |  2:54.55 |    141750    |   154854
       13  | 34:24.55 |  3:01.12 |    154855    |   168441
       14  | 37:25.67 |  3:12.70 |    168442    |   182911
       15  | 40:38.62 |  3:39.70 |    182912    |   199406
       16  | 44:18.57 |  4:12.73 |    199407    |   218379
       17  | 48:31.55 |  3:42.30 |    218380    |   235059
       18  | 52:14.10 |  4:50.20 |    235060    |   256829
       19  | 57:04.30 |  3:15.40 |    256830    |   271494
       20  | 60:19.70 |  1:40.55 |    271495    |   279049
       21  | 62:00.50 |  1:40.10 |    279050    |   286559
       22  | 63:40.60 |  2:31.12 |    286560    |   297896
       23  | 66:11.72 |  3:25.15 |    297897    |   313286
Range status and errors
Selected range
     Filename I:\=== VINYL RIPS ===\=== EAC===\X FRESH RIP\Lortzing- Neue Detmolder Liedertafel- An den Frühling.wav
     Peak level 99.2 %
     Extraction speed 0.7 X
     Range quality 100.0 %
     Test CRC 462D0A1D
     Copy CRC 462D0A1D
     Copy OK
No errors occurred
AccurateRip summary
Track  1  not present in database
Track  2  not present in database
Track  3  not present in database
Track  4  not present in database
Track  5  not present in database
Track  6  not present in database
Track  7  not present in database
Track  8  not present in database
Track  9  not present in database
Track 10  not present in database
Track 11  not present in database
Track 12  not present in database
Track 13  not present in database
Track 14  not present in database
Track 15  not present in database
Track 16  not present in database
Track 17  not present in database
Track 18  not present in database
Track 19  not present in database
Track 20  not present in database
Track 21  not present in database
Track 22  not present in database
Track 23  not present in database
None of the tracks are present in the AccurateRip database
End of status report
---- CUETools DB Plugin V2.1.3
[CTDB TOCID: 9v1Owb43ovJTKhCA6_Puv4JfIiI-] disk not present in database, Submit result: 9v1Owb43ovJTKhCA6_Puv4JfIiI- has been uploaded
==== Log checksum 11F56EB833081D6F9130D9A951A25754F3CE4872ED6761C73716FE298C96F27D ====
Код:
AUDIOCHECKER v2.0 beta (build 457) - by Dester - [email protected]
~~~~~~~~~~~~~~~~~~~~~~~~~~~~~~~~~~
-=== DO NOT EDIT THIS FILE! ===-
Path: ...\Lortzing- Neue Detmolder Liedertafel- An den Fruehling {Germany 2002}
1 -=- Neue Detmolder Liedertafel - Lortzing- An den Frьhling.wav -=- CDDA (99%)
164831396


Скачать торрент 230.58 МБ


Download
Для скачивания .torrent файлов необходима регистрация
Сайт не распространяет и не хранит электронные версии произведений, а лишь предоставляет доступ к создаваемому пользователями каталогу ссылок на торрент-файлы, которые содержат только списки хеш-сумм

Страница 1 из 1

Ответить на тему

   Похожие торренты   Торрент