Регистрация ·  Логин: Пароль: Запомнить   · Забыли пароль?




Ответить на тему
Статистика раздачи
Размер: 239.02 МБ | Зарегистрирован: 10 мар 2018, 13:18 | .torrent скачан: 0 раз(а)
Сидеров: [ 3  | 0 байт/сек ]   Личеров: [ 1  | 0 байт/сек ]   DHT: [ 3 / 1 ]
Автор Сообщение

Модератор
Аватара пользователя

Стаж: 6 лет
Сообщения: 7870
Молдова

Сообщение 10 мар 2018, 13:18 

[Цитировать]

Placido Domingo : The Broadway I Love (1991)

Жанр: classic / vocal
Год выпуска диска: 1991
Производитель диска: East West Records / Germany / 9031-75590-2
Аудио кодек: FLAC
Тип рипа: image+.cue
Битрейт аудио: lossless
Продолжительность: 00:54:13
Треклист:
01. Try To Remember (from - The Fantasticks) (4:15) boy soprano - Ted Huffman
02. Younger Than Springtime (from - South Pacific) (3:51)
03. The Last Night Of The World (from - Miss Saigon) (5:10) special guest - Carly Simon
04. All The Things You Are (from - Very Warm For May) (3:52)
05. What Kind Of Fool Am I? (from - Stop The World - I Want To Get Off) (2:54)
06. Oh, What A Beautiful Mornin' (from - Oklahoma!) (2:57)
07. Somewhere (from - West Side Story) (4:39) The Concert Chorale of New York
08. So In Love (from - Kiss Me Kate) (5:21)
09. Send In The Clowns (from - A Little Night Music) (3:48)
10. Tonight (from - West Side Story) (2:48)
11. All I Ask Of You (from - Phantom Of The Opera) (5:12) special guest - Rebecca Luker
12. Love Is Here To Stay (from - The Goldwyn Follies) (3:13)
13. Over There (from - George M!) (2:32)
14. You'll Never Walk Alone (from - Carousel) (3:40) The Concert Chorale of New York
.
.
.with THE LONDON SYMPHONY ORCHESTRA
conductor : Eugene Kohn
Exact Audio Copy V0.99 prebeta 5 from 4. May 2009
Отчёт EAC об извлечении, выполненном 8. сентября 2010, 12:11
Placido Domingo / The Broadway I Love
Дисковод: SONY DVD RW DRX-S70U Adapter: 1 ID: 0
Режим чтения : Достоверность
Использование точного потока : Да
Отключение кэша аудио : Да
Использование указателей C2 : Нет
Коррекция смещения при чтении : 48
Способность читать области Lead-in и Lead-out : Нет
Заполнение пропущенных сэмплов тишиной : Да
Удаление блоков с тишиной в начале и конце : Нет
При вычислениях CRC использовались нулевые сэмплы : Да
Интерфейс : Встроенный Win32-интерфейс для Win NT/2000
Выходной формат : Пользовательский кодировщик
Выбранный битрейт : 768 kBit/s
Качество : Высокий
Добавление ID3-тэга : Нет
Утилита сжатия : H:\Program Files\Exact Audio Copy\Flac\flac.exe
Дополнительные параметры : -6 -V -T "ARTIST=%a" -T "TITLE=%t" -T "ALBUM=%g" -T "DATE=%y" -T "TRACKNUMBER=%n" -T "GENRE=%m" -T "COMMENT=%e" %s -o %d
TOC извлечённого CD
Трек | Старт | Длительность | Начальный сектор | Конечный сектор
---------------------------------------------------------------------
1 | 0:00.00 | 4:15.12 | 0 | 19136
2 | 4:15.12 | 3:51.20 | 19137 | 36481
3 | 8:06.32 | 5:10.18 | 36482 | 59749
4 | 13:16.50 | 3:52.30 | 59750 | 77179
5 | 17:09.05 | 2:53.65 | 77180 | 90219
6 | 20:02.70 | 2:57.15 | 90220 | 103509
7 | 23:00.10 | 4:38.62 | 103510 | 124421
8 | 27:38.72 | 5:20.48 | 124422 | 148469
9 | 32:59.45 | 3:48.30 | 148470 | 165599
10 | 36:48.00 | 2:47.45 | 165600 | 178169
11 | 39:35.45 | 5:11.72 | 178170 | 201566
12 | 44:47.42 | 3:12.48 | 201567 | 216014
13 | 48:00.15 | 2:32.15 | 216015 | 227429
14 | 50:32.30 | 3:40.35 | 227430 | 243964
Характеристики диапазона извлечения и сообщения об ошибках
Выбранный диапазон
Имя файла F:\Placido Domingo\The Broadway I Love\Placido Domingo - The Broadway I Love.wav
Подозрительная позиция 0:54:12
Пиковый уровень 100.0 %
Качество диапазона 99.9 %
CRC теста 9D1FE09A
CRC копии 9D1FE09A
Копирование завершено
Были ошибки
AccurateRip: сводка
Трек 1 точное извлечение (доверие 4) [53BDBE5C]
Трек 2 точное извлечение (доверие 4) [5B4DB8D1]
Трек 3 точное извлечение (доверие 4) [A99EA838]
Трек 4 точное извлечение (доверие 4) [8DAFC88D]
Трек 5 точное извлечение (доверие 4) [40863B3E]
Трек 6 точное извлечение (доверие 4) [D424FEE7]
Трек 7 точное извлечение (доверие 4) [B8D2E47D]
Трек 8 точное извлечение (доверие 4) [525FA385]
Трек 9 точное извлечение (доверие 4) [7C8D30CB]
Трек 10 точное извлечение (доверие 4) [ADC687A6]
Трек 11 точное извлечение (доверие 4) [FC094276]
Трек 12 точное извлечение (доверие 4) [2EF078DF]
Трек 13 точное извлечение (доверие 4) [2BF570AB]
Трек 14 точность не определена (достоверность 4) [A9C9B5BA], AccurateRip вернул [2C73BD56]
13 трек(и) скопированы точно
1 трек(и) не удалось проверить на точность
Некоторые треки не прошли проверку на точность
Конец отчёта
AUDIOCHECKER v2.0 beta (build 457) - by Dester - [email protected]
~~~~~~~~~~~~~~~~~~~~~~~~~~~~~~~~~~
-=== DO NOT EDIT THIS FILE! ===-
Path: ...\The Broadway I Love
1 -=- Placido Domingo - The Broadway I Love.flac -=- CDDA (100%)
223202484
Код:
Код:
REM GENRE Vocal
REM DATE 1991
REM DISCID C50CB40E
REM COMMENT "ExactAudioCopy v0.99pb5"
PERFORMER "Placido Domingo"
TITLE "The Broadway I Love"
FILE "Placido Domingo - The Broadway I Love.flac" WAVE
  TRACK 01 AUDIO
    TITLE "Try To Remember (from - The Fantasticks)"
    PERFORMER "Placido Domingo"
    INDEX 01 00:00:00
  TRACK 02 AUDIO
    TITLE "Younger Than Springtime (from - South Pacific)"
    PERFORMER "Placido Domingo"
    INDEX 00 04:14:15
    INDEX 01 04:15:12
  TRACK 03 AUDIO
    TITLE "The Last Night Of The World (from - Miss Saigon)"
    PERFORMER "Placido Domingo"
    INDEX 00 08:05:48
    INDEX 01 08:06:32
  TRACK 04 AUDIO
    TITLE "All The Things You Are (from - Very Warm For May)"
    PERFORMER "Placido Domingo"
    INDEX 00 13:14:65
    INDEX 01 13:16:50
  TRACK 05 AUDIO
    TITLE "What Kind Of Fool Am I? (from - Stop The World - I Want To Get Off)"
    PERFORMER "Placido Domingo"
    INDEX 00 17:08:55
    INDEX 01 17:09:05
  TRACK 06 AUDIO
    TITLE "Oh, What A Beautiful Mornin' (from - Oklahoma!)"
    PERFORMER "Placido Domingo"
    INDEX 00 20:02:10
    INDEX 01 20:02:70
  TRACK 07 AUDIO
    TITLE "Somewhere (from - West Side Story)"
    PERFORMER "Placido Domingo"
    INDEX 00 22:59:47
    INDEX 01 23:00:10
  TRACK 08 AUDIO
    TITLE "So In Love (from - Kiss Me Kate)"
    PERFORMER "Placido Domingo"
    INDEX 00 27:38:00
    INDEX 01 27:38:72
  TRACK 09 AUDIO
    TITLE "Send In The Clowns (from - A Little Night Music)"
    PERFORMER "Placido Domingo"
    INDEX 00 32:59:17
    INDEX 01 32:59:45
  TRACK 10 AUDIO
    TITLE "Tonight (from - West Side Story)"
    PERFORMER "Placido Domingo"
    INDEX 00 36:47:07
    INDEX 01 36:48:00
  TRACK 11 AUDIO
    TITLE "All I Ask Of You (from - Phantom Of The Opera)"
    PERFORMER "Placido Domingo"
    INDEX 00 39:33:52
    INDEX 01 39:35:45
  TRACK 12 AUDIO
    TITLE "Love Is Here To Stay (from - The Goldwyn Follies)"
    PERFORMER "Placido Domingo"
    INDEX 00 44:45:48
    INDEX 01 44:47:42
  TRACK 13 AUDIO
    TITLE "Over There (from - George M!)"
    PERFORMER "Placido Domingo"
    INDEX 00 47:58:70
    INDEX 01 48:00:15
  TRACK 14 AUDIO
    TITLE "You'll Never Walk Alone (from - Carousel)"
    PERFORMER "Placido Domingo"
    INDEX 00 50:31:20
    INDEX 01 50:32:30

рип мой . cd тоже .


Скачать торрент 239.02 МБ


Download
Для скачивания .torrent файлов необходима регистрация
Сайт не распространяет и не хранит электронные версии произведений, а лишь предоставляет доступ к создаваемому пользователями каталогу ссылок на торрент-файлы, которые содержат только списки хеш-сумм

Страница 1 из 1

Ответить на тему

   Похожие торренты   Торрент 




cron