Регистрация ·  Логин: Пароль: Запомнить   · Забыли пароль?




Ответить на тему
Статистика раздачи
Размер: 589.94 МБ | Зарегистрирован: 10 мар 2018, 13:18 | .torrent скачан: 0 раз(а)
Сидеров: [ 5  | 0 байт/сек ]   Личеров: [ 1  | 0 байт/сек ]   DHT: [ 5 / 1 ]
Автор Сообщение

Модератор
Аватара пользователя

Стаж: 6 лет
Сообщения: 7870
Молдова

Сообщение 10 мар 2018, 13:18 

[Цитировать]

Handel - Sosarme, re di Media, HWV 30 (Anthony Lewis; Santa Cecilia Chamber Orchestra)

Жанр: Classical
Год выпуска диска: 2001
Производитель диска: Opera D'oro
Аудио кодек: APE
Тип рипа: image+.cue
Битрейт аудио: lossless
Продолжительность: CD1:75’06; CD2:70’39
Orchestra: Santa Cecilia Chamber Orchestra
Conductor: Anthony Lewis
Composer: George Frederick Handel
Performer:
Sosarme - Alfred Deller, (Counter-tenor)
Melo - Helen Watts, (Mezzo-soprano, Contralto)
Haliate - William Herbert, (Tenor)
Erenice - Nancy Evans, (Mezzo-soprano)
Elmira - Margaret Ritchie, (Soprano)
Argone - John Kentish, (Tenor)
Altomaro - Ian Wallace, (Bass-baritone)
Трэклист:
1. Overture (5:12)
2. Act I. Di mio padre al furore (5:44)
3. Rendi'l sereno al ciglio (5:01)
4. Giusti Numi... Forte inciampo al suo furore (2:40)
5. Melo, mio prence... Fra l'ombre e gl'orrori farfalla confuse (6:39)
6. Come piu dell'usato (1:25)
7. Si, si minaccia, e vinta l'ira (2:54)
8. Non piu contese... La turba adulatrice (7:15)
9. Amici, troppo oscuro torpe il valor nascosto (3:55)
10. Dite pace, e fulminate (6:37)
11. Act II. Padre, germano, e sposo di voi (3:41)
12. Ebben dall'alta torre (2:31)
13. Se m'ascolti. E udir potrei? (1:04)
14. Padre, Signor! (1:47)
15. Se discordia ci disciolse (2:52)
16. E cosi tu disprezzi la tua propria grandezza?... So ch'il Ciel ben spesso gode (8:29)
17. Quanto piu Melo ha sdegno... Sento il cor che lieto gode (5:51)
18. Con si bella ferita, caro (1:29)
1. Overture (5:12)
2. Act I. Di mio padre al furore (5:44)
3. Rendi'l sereno al ciglio (5:01)
4. Giusti Numi... Forte inciampo al suo furore (2:40)
5. Melo, mio prence... Fra l'ombre e gl'orrori farfalla confuse (6:39)
6. Come piu dell'usato (1:25)
7. Si, si minaccia, e vinta l'ira (2:54)
8. Non piu contese... La turba adulatrice (7:15)
9. Amici, troppo oscuro torpe il valor nascosto (3:55)
10. Dite pace, e fulminate (6:37)
11. Act II. Padre, germano, e sposo di voi (3:41)
12. Ebben dall'alta torre (2:31)
13. Se m'ascolti. E udir potrei? (1:04)
14. Padre, Signor! (1:47)
15. Se discordia ci disciolse (2:52)
16. E cosi tu disprezzi la tua propria grandezza?... So ch'il Ciel ben spesso gode (8:29)
17. Quanto piu Melo ha sdegno... Sento il cor che lieto gode (5:51)
18. Con si bella ferita, caro (1:29)
Доп. информация:
Exact Audio Copy V0.99 prebeta 4 from 23. January 2008
EAC extraction logfile from 3. March 2010, 22:51
Anthony Lewis, A.Deller, H.Watts, W.Herbert, N.Evans, M.Ritchie / Handel - Sosarme, re di Media CD1
Used drive : Optiarc DVD RW AD-7173A Adapter: 1 ID: 1
Read mode : Secure
Utilize accurate stream : Yes
Defeat audio cache : Yes
Make use of C2 pointers : No
Read offset correction : 48
Overread into Lead-In and Lead-Out : No
Fill up missing offset samples with silence : Yes
Delete leading and trailing silent blocks : No
Null samples used in CRC calculations : Yes
Used interface : Native Win32 interface for Win NT & 2000
Used output format : Internal WAV Routines
Sample format : 44.100 Hz; 16 Bit; Stereo
TOC of the extracted CD
Track | Start | Length | Start sector | End sector
---------------------------------------------------------
1 | 0:00.00 | 5:12.51 | 0 | 23450
2 | 5:12.51 | 5:44.00 | 23451 | 49250
3 | 10:56.51 | 5:01.50 | 49251 | 71875
4 | 15:58.26 | 2:40.53 | 71876 | 83928
5 | 18:39.04 | 6:39.56 | 83929 | 113909
6 | 25:18.60 | 1:25.53 | 113910 | 120337
7 | 26:44.38 | 2:54.55 | 120338 | 133442
8 | 29:39.18 | 7:15.27 | 133443 | 166094
9 | 36:54.45 | 3:55.57 | 166095 | 183776
10 | 40:50.27 | 6:37.45 | 183777 | 213596
11 | 47:27.72 | 3:41.07 | 213597 | 230178
12 | 51:09.04 | 2:31.60 | 230179 | 241563
13 | 53:40.64 | 1:04.71 | 241564 | 246434
14 | 54:45.60 | 1:47.56 | 246435 | 254515
15 | 56:33.41 | 2:52.38 | 254516 | 267453
16 | 59:26.04 | 8:29.58 | 267454 | 305686
17 | 67:55.62 | 5:51.25 | 305687 | 332036
18 | 73:47.12 | 1:29.54 | 332037 | 338765
Range status and errors
Selected range
Filename C:\Documents and Settings\Handel - Sosarme, re di Media CD1.wav
Peak level 96.6 %
Range quality 100.0 %
Copy CRC 7EC7812E
Copy OK
No errors occurred
End of status report
Exact Audio Copy V0.99 prebeta 4 from 23. January 2008
EAC extraction logfile from 3. March 2010, 23:15
Anthony Lewis, A.Deller, H.Watts, W.Herbert, N.Evans, M.Ritchie / Handel - Sosarme, re di Media CD2
Used drive : Optiarc DVD RW AD-7173A Adapter: 1 ID: 1
Read mode : Secure
Utilize accurate stream : Yes
Defeat audio cache : Yes
Make use of C2 pointers : No
Read offset correction : 48
Overread into Lead-In and Lead-Out : No
Fill up missing offset samples with silence : Yes
Delete leading and trailing silent blocks : No
Null samples used in CRC calculations : Yes
Used interface : Native Win32 interface for Win NT & 2000
Used output format : Internal WAV Routines
Sample format : 44.100 Hz; 16 Bit; Stereo
TOC of the extracted CD
Track | Start | Length | Start sector | End sector
---------------------------------------------------------
1 | 0:00.00 | 9:48.40 | 0 | 44139
2 | 9:48.40 | 1:35.48 | 44140 | 51312
3 | 11:24.13 | 3:03.45 | 51313 | 65082
4 | 14:27.58 | 3:07.21 | 65083 | 79128
5 | 17:35.04 | 2:57.29 | 79129 | 92432
6 | 20:32.33 | 7:05.15 | 92433 | 124322
7 | 27:37.48 | 3:40.43 | 124323 | 140865
8 | 31:18.16 | 3:02.43 | 140866 | 154558
9 | 34:20.59 | 2:59.69 | 154559 | 168052
10 | 37:20.53 | 5:36.71 | 168053 | 193323
11 | 42:57.49 | 1:08.14 | 193324 | 198437
12 | 44:05.63 | 1:38.57 | 198438 | 205844
13 | 45:44.45 | 7:08.64 | 205845 | 238008
14 | 52:53.34 | 0:42.52 | 238009 | 241210
15 | 53:36.11 | 3:18.01 | 241211 | 256061
16 | 56:54.12 | 4:10.42 | 256062 | 274853
17 | 61:04.54 | 5:37.14 | 274854 | 300142
18 | 66:41.68 | 4:06.71 | 300143 | 318663
Range status and errors
Selected range
Filename C:\Documents and Settings\Handel - Sosarme, re di Media CD2.wav
Peak level 96.6 %
Range quality 100.0 %
Copy CRC 9D5403B4
Copy OK
No errors occurred
End of status report
Особая благодарность Arleg за предоставление релиза!



Скачать торрент 589.94 МБ


Download
Для скачивания .torrent файлов необходима регистрация
Сайт не распространяет и не хранит электронные версии произведений, а лишь предоставляет доступ к создаваемому пользователями каталогу ссылок на торрент-файлы, которые содержат только списки хеш-сумм

Страница 1 из 1

Ответить на тему

   Похожие торренты   Торрент 




cron