Регистрация ·  Логин: Пароль: Запомнить   · Забыли пароль?




Ответить на тему
Статистика раздачи
Размер: 286.2 МБ | Зарегистрирован: 10 мар 2018, 13:18 | .torrent скачан: 0 раз(а)
Сидеров: [ 3  | 0 байт/сек ]   Личеров: [ 1  | 0 байт/сек ]   DHT: [ 3 / 1 ]
Автор Сообщение

Модератор
Аватара пользователя

Стаж: 6 лет
Сообщения: 7870
Молдова

Сообщение 10 мар 2018, 13:18 

[Цитировать]


С. Прокофьев - Египетские ночи
Гамлет
Осеннее
Здравица
Расцветай, могучий край
Жанр: Vocal, Orchestral
Страна-производитель диска: EU
Год издания диска: 2003
Издатель (лейбл): Chandos
Номер по каталогу: CHAN 10056
Дата записи: 2002
Аудиокодек: FLAC
Тип рипа: image+.cue
Битрейт аудио: lossless
Продолжительность: 73:18
Источник: собственный рип
Наличие сканов в содержимом раздачи: да
Треклист:
1 Zdravitsa (Hail to Stalin), Op. 85 (1939)* 12:51
Original version of the Cantata for chorus and orchestra
2 Autumnal, Op. 8 (1910; 1914; 1934) 7:43
Symphonic sketch
Hamlet, Op. 77 (1938) 21:50
Incidental music for the play by W. Shakespeare
Tatiana Sharova soprano
Andrei Baturkin baritone
3 1 The Ghost of Hamlet's Father. Andante lugubre 3:18
4 2 Claudius's March. Moderato con brio 1:59
5 3 Fanfares 0:33
6 4 Pantomime. Allegro moderato 2:54
7 5 Ophelia's first song. Andante 2:14
8 6 Ophelia's second song. Andante 2:28
9 7 Ophelia's third song. Andante 1:19
10 8 Ophelia's fourth song. Andante espressivo 1:45
11 9 The Gravedigger's song. Sostenuto 2:01
12 10 Fortinbras's Final March. Andante maestoso 3:14
13 Flourish, Mighty Land, Op. 114 (1947)* 8:22
Original version of the Cantata for the thirtieth anniversary of the October Revolution
Egyptian Nights, Op. 61 (1938) 22:06
Symphonic Suite
14 1 Night in Egypt. Adagio 1:43
15 2 Caesar, the Sphinx and Cleopatra. Andantino 3:00
16 3 The Alarm. Allegro inquieto 1:05
17 4 Dances. Allegretto 2:44
18 5 Anthony. Andante mosso 4:12
19 6 The Fall of Cleopatra. Lento doloroso 5:23
20 7 Roma militaris. Andante maestoso 3:55
Исполнители:
Государственная академическая симфоническая капелла России
Валерий Полянский
Татьяна Шарова, сопрано
Андрей Батуркин, баритон
Код:
Exact Audio Copy V1.0 beta 3 from 29. August 2011
EAC extraction logfile from 4. January 2012, 0:42
Prokofiev / Egyptian Nights, Hamlet, etc.
Used drive  : MS   Adapter: 1  ID: 0
Read mode               : Secure
Utilize accurate stream : Yes
Defeat audio cache      : Yes
Make use of C2 pointers : No
Read offset correction                      : 48
Overread into Lead-In and Lead-Out          : No
Fill up missing offset samples with silence : Yes
Delete leading and trailing silent blocks   : No
Null samples used in CRC calculations       : Yes
Used interface                              : Native Win32 interface for Win NT & 2000
Used output format              : User Defined Encoder
Selected bitrate                : 128 kBit/s
Quality                         : High
Add ID3 tag                     : No
Command line compressor         : C:\Program Files\Exact Audio Copy\flac.exe
TOC of the extracted CD
     Track |   Start  |  Length  | Start sector | End sector
    ---------------------------------------------------------
        1  |  0:00.00 | 12:58.48 |         0    |    58397
        2  | 12:58.48 |  7:48.50 |     58398    |    93547
        3  | 20:47.23 |  3:18.40 |     93548    |   108437
        4  | 24:05.63 |  1:59.55 |    108438    |   117417
        5  | 26:05.43 |  0:33.50 |    117418    |   119942
        6  | 26:39.18 |  2:54.35 |    119943    |   133027
        7  | 29:33.53 |  2:14.65 |    133028    |   143142
        8  | 31:48.43 |  2:28.10 |    143143    |   154252
        9  | 34:16.53 |  1:19.00 |    154253    |   160177
       10  | 35:35.53 |  1:45.15 |    160178    |   168067
       11  | 37:20.68 |  2:01.10 |    168068    |   177152
       12  | 39:22.03 |  3:21.05 |    177153    |   192232
       13  | 42:43.08 |  8:28.20 |    192233    |   230352
       14  | 51:11.28 |  1:43.35 |    230353    |   238112
       15  | 52:54.63 |  3:00.45 |    238113    |   251657
       16  | 55:55.33 |  1:05.45 |    251658    |   256577
       17  | 57:01.03 |  2:44.40 |    256578    |   268917
       18  | 59:45.43 |  4:12.15 |    268918    |   287832
       19  | 63:57.58 |  5:23.25 |    287833    |   312082
       20  | 69:21.08 |  3:57.67 |    312083    |   329924
Range status and errors
Selected range
     Filename \\tsclient\D\Uploads\Prokofiev_Egyptian_Nights\Prokofiev - Egyptian Nights, Hamlet, etc..wav
     Peak level 99.7 %
     Extraction speed 4.3 X
     Range quality 99.9 %
     Test CRC C47C2C12
     Copy CRC C47C2C12
     Copy OK
No errors occurred
End of status report
Код:
REM DATE 2003
REM DISCID 2B112F14
REM COMMENT "ExactAudioCopy v1.0b3"
PERFORMER "Prokofiev"
TITLE "Egyptian Nights, Hamlet, etc."
FILE "Prokofiev - Egyptian Nights, Hamlet, etc." WAVE
  TRACK 01 AUDIO
    TITLE "Zdravitsa (Hail to Stalin), Op.85"
    PERFORMER "Prokofiev"
    INDEX 01 00:00:00
  TRACK 02 AUDIO
    TITLE "Autumnal, Op.8"
    PERFORMER "Prokofiev"
    INDEX 00 12:52:20
    INDEX 01 12:58:48
  TRACK 03 AUDIO
    TITLE "Hamlet, Op.77 / 1. The Ghost of Hamlet's Father. Andante lugubre"
    PERFORMER "Prokofiev"
    INDEX 00 20:42:55
    INDEX 01 20:47:23
  TRACK 04 AUDIO
    TITLE "Hamlet, Op.77 / 2. Claudius's March. Moderato con brio"
    PERFORMER "Prokofiev"
    INDEX 01 24:05:63
  TRACK 05 AUDIO
    TITLE "Hamlet, Op.77 / 3. Fanfares"
    PERFORMER "Prokofiev"
    INDEX 01 26:05:43
  TRACK 06 AUDIO
    TITLE "Hamlet, Op.77 / 4. Pantomime. Allegro moderato"
    PERFORMER "Prokofiev"
    INDEX 01 26:39:18
  TRACK 07 AUDIO
    TITLE "Hamlet, Op.77 / 5. Orphelia's first song. Andante"
    PERFORMER "Prokofiev"
    INDEX 01 29:33:53
  TRACK 08 AUDIO
    TITLE "Hamlet, Op.77 / 6. Orphelia's second song. Andante"
    PERFORMER "Prokofiev"
    INDEX 01 31:48:43
  TRACK 09 AUDIO
    TITLE "Hamlet, Op.77 / 7. Orphelia's third song. Andante"
    PERFORMER "Prokofiev"
    INDEX 01 34:16:53
  TRACK 10 AUDIO
    TITLE "Hamlet, Op.77 / 8. Orphelia's fourth song. Andante espressivo"
    PERFORMER "Prokofiev"
    INDEX 01 35:35:53
  TRACK 11 AUDIO
    TITLE "Hamlet, Op.77 / 9. The Gravedigger's song. Sostenuto"
    PERFORMER "Prokofiev"
    INDEX 01 37:20:68
  TRACK 12 AUDIO
    TITLE "Hamlet, Op.77 / 10. Fortinbras's Final March. Andante maestoso"
    PERFORMER "Prokofiev"
    INDEX 01 39:22:03
  TRACK 13 AUDIO
    TITLE "Flourish, Mighty Land, Op.114"
    PERFORMER "Prokofiev"
    INDEX 00 42:37:15
    INDEX 01 42:43:08
  TRACK 14 AUDIO
    TITLE "Egyptian Nights, Op.61 / 1. Night in Egypt. Adagio"
    PERFORMER "Prokofiev"
    INDEX 00 51:05:45
    INDEX 01 51:11:28
  TRACK 15 AUDIO
    TITLE "Egyptian Nights, Op.61 / 2. Caesar, the Sphinx and Cleopatra. Andantino"
    PERFORMER "Prokofiev"
    INDEX 01 52:54:63
  TRACK 16 AUDIO
    TITLE "Egyptian Nights, Op.61 / 3. The Alarm. Allegro inquieto"
    PERFORMER "Prokofiev"
    INDEX 01 55:55:33
  TRACK 17 AUDIO
    TITLE "Egyptian Nights, Op.61 / 4. Dances. Allegretto"
    PERFORMER "Prokofiev"
    INDEX 01 57:01:03
  TRACK 18 AUDIO
    TITLE "Egyptian Nights, Op.61 / 5. Anthony. Andante mosso"
    PERFORMER "Prokofiev"
    INDEX 01 59:45:43
  TRACK 19 AUDIO
    TITLE "Egyptian Nights, Op.61 / 6. The Fall of Cleopatra. Lento doloroso"
    PERFORMER "Prokofiev"
    INDEX 01 63:57:58
  TRACK 20 AUDIO
    TITLE "Egyptian Nights, Op.61 / 7. Roma militaris. Andante maestoso"
    PERFORMER "Prokofiev"
    INDEX 01 69:21:08


Скачать торрент 286.2 МБ


Download
Для скачивания .torrent файлов необходима регистрация
Сайт не распространяет и не хранит электронные версии произведений, а лишь предоставляет доступ к создаваемому пользователями каталогу ссылок на торрент-файлы, которые содержат только списки хеш-сумм

Страница 1 из 1

Ответить на тему

   Похожие торренты   Торрент 




cron