Регистрация ·  Логин: Пароль: Запомнить   · Забыли пароль?




Ответить на тему
Статистика раздачи
Размер: 158.18 МБ | Зарегистрирован: 10 мар 2018, 13:19 | .torrent скачан: 0 раз(а)
Сидеров: [ 0  | 0 байт/сек ]   Личеров: [ 0  | 0 байт/сек ]   DHT: [ 0 / 0 ]
Автор Сообщение

Модератор
Аватара пользователя

Стаж: 6 лет
Сообщения: 7870
Молдова

Сообщение 10 мар 2018, 13:19 

[Цитировать]

Barbra Streisand - Classical Barbra

Жанр: Classical/Vocal
Год выхода альбома: 1976, February [LP Columbia Masterworks #M 33452, USA]
Год выпуска диска: 1990, October, 25 [CBS Masterworks / MK 33452 (DIDC 10049)]
Производитель диска: Austria
Аудио кодек: APE
Тип рипа: image+.cue
Битрейт аудио: lossless
Продолжительность: 00:34:02
Источник рипа: лично сама
Трэклист:
01. Beau Soir (2:42)
Lyrics By [Words] - Paul Bourget
Music By - Claude Debussy
02. Brezairola ("Berceuse" From "Songs Of The Auvergne") (3:47)
Lyrics By [Words] - Traditional
Music By - Joseph Canteloube
03. Verschwiegene Liebe (2:57)
Lyrics By [Words] - Joseph Von Eichendorff
Music By - Hugo Wolf
Performer [Accompanied By] - Claus Ogerman
04. Pavane (Vocalise) (5:29)
Music By - Gabriel Fauré
05. Après Un Rêve (3:23)
Lyrics By [Words] - Romain Bussine
Music By - Gabriel Fauré
06. In Trutina (From "Carmina Burana") (2:11)
Lyrics By [Words] - Traditional
Music By - Carl Orff
07. Lascia Ch'io Pianga (From "Rinaldo") (3:37)
Lyrics By - Giacomo Rossi
Music By - George Frideric Handel
08. Mondnacht (3:56)
Lyrics By [Words] - Joseph Von Eichendorff
Music By - Robert Schumann
Performer [Accompanied By] - Claus Ogerman
09. Dank Sei Dir, Herr (3:42)
Lyrics By [Words] - Anon.
Music By - George Frideric Handel
10. I Loved You (2:18)
Lyrics By [Words After A Poem By] - Alexander Pushkin
Music By, Performer [Accompanied By] - Claus Ogerman
Доп. информация:
Produced: by Claus Ogerman
The Columbia Symphony Orchestra Arranged and Conducted: by Claus Ogerman
Original Recording Engineers: Mickey Crofford, Lee Hirschberg, Eddie Brackett, Frank Laico
Audio Supervision: Fred Plaut
Photography: Francesco Scavullo
Liner Notes: Homer Dennison
В 1976 году багаж альбомов Барбры Стрейзанд пополнился ещё одним шедевром, которым она сумела удивить своих поклонников, буквально только что получивших возможность услышать её на саундтреке с рокером Крисом Кристофферсоном к фильму "A Star Is Born"/"Звезда Родилась", где они сыграли главные роли. На сей раз в восторге были не только преданные фаны Барбры и просто любители по-настоящему хорошей музыки - новый альбом стал приятным сюрпризом для ценителей классического жанра.
Альбом "Classical Barbra" - это 10 прекрасных композиций в исполнении Стрейзанд, на музыку таких великих композиторов, как Дебюсси, Вульф, Гендель и Шуманн. Кажется, что певица превзошла саму себя, сумев во время записи классических произведений, полностью преобразиться из актрисы и исполнительницы номерных альбомов в жанре популярной музыки в настоящую приму нетленной музыки. 10 треков данного альбома спеты Барброй на 5 языках (!) - французском, немецком, итальянском, английском и на латыни. Это умение и мастерство можно назвать даром от Бога, талантом от природы и в этом есть козырь певицы Барбры Стрейзанд. Это - маленький шедевр и большой подарок Судьбы...
ТОЛЬКО ФАКТЫ:
- запись альбома происходила в апреле-мае 1973 года (а выпущен был только в феврале 1976) под рабочим названием "Следуя По Лестнице";
- трек № 1 - "Beau Soir", был записан 29 мая 1973 года в Лос Анжелесе;
- сама Барбра отозвалась о записи данного альбома, как о "наиболее трудной сессии в своей музыкальной карьере";
- данный альбом был ремастирован и выпущен на CD 25 октября 1990 года;
- вышедший в феврале 1976, альбом "Classical Barbra" 6 марта 1976 года добрался до позиции #46 в чарте Billboard, в общей сложности продержавшись в нём в течение 14-ти недель подряд;
- 5 мая 1999 года альбом "Classical Barbra" был сертифицирован RIAA как Золотой.
Exact Audio Copy V0.99 prebeta 4 from 23. January 2008
Отчёт EAC об извлечении, выполненном 7. февраля 2009, 22:38
Barbra Streisand / Classical Barbra
Дисковод: ATAPI DVD DW 8X16X8X16 Adapter: 0 ID: 2
Режим чтения : Достоверность
Использование точного потока : Да
Отключение кэша аудио : Да
Использование указателей C2 : Нет
Коррекция смещения при чтении : 618
Способность читать области Lead-in и Lead-out : Нет
Заполнение пропущенных сэмплов тишиной : Да
Удаление блоков с тишиной в начале и конце : Нет
При вычислениях CRC использовались нулевые сэмплы : Нет
Интерфейс : Встроенный Win32-интерфейс для Win NT/2000
Выходной формат : Внутренние WAV-операции
Формат сэмплов : 44.100 Гц; 16 бит; стерео
TOC извлечённого CD
Трек | Старт | Длительность | Начальный сектор | Конечный сектор
---------------------------------------------------------------------
1 | 0:00.00 | 2:42.20 | 0 | 12169
2 | 2:42.20 | 3:47.10 | 12170 | 29204
3 | 6:29.30 | 2:57.22 | 29205 | 42501
4 | 9:26.52 | 5:29.30 | 42502 | 67206
5 | 14:56.07 | 3:23.50 | 67207 | 82481
6 | 18:19.57 | 2:11.28 | 82482 | 92334
7 | 20:31.10 | 3:37.30 | 92335 | 108639
8 | 24:08.40 | 3:56.32 | 108640 | 126371
9 | 28:04.72 | 3:42.58 | 126372 | 143079
10 | 31:47.55 | 2:18.65 | 143080 | 153494
Характеристики диапазона извлечения и сообщения об ошибках
Выбранный диапазон
Имя файла C:\Documents and Settings\OEM\Мои документы\Мои аудиозаписи\Barbra Streisand - Classical Barbra.wav
Пиковый уровень 93.6 %
Качество диапазона 100.0 %
CRC копии 1CF68EA8
Копирование... OK
Ошибок не произошло
AccurateRip: сводка
Трек 1 точное извлечение (доверие 3) [2C4029A3]
Трек 2 точное извлечение (доверие 3) [3AA54B9C]
Трек 3 точное извлечение (доверие 3) [695554F9]
Трек 4 точное извлечение (доверие 3) [7E42D145]
Трек 5 точное извлечение (доверие 3) [BC806BF6]
Трек 6 точное извлечение (доверие 3) [973ACC17]
Трек 7 точное извлечение (доверие 3) [5FF6AF39]
Трек 8 точное извлечение (доверие 3) [5DF7CD0D]
Трек 9 точное извлечение (доверие 3) [6FF31721]
Трек 10 точное извлечение (доверие 3) [79B0636B]
Все треки извлечены точно
Конец отчёта
AUDIOCHECKER v2.0 beta (build 457) - by Dester - [email protected]
~~~~~~~~~~~~~~~~~~~~~~~~~~~~~~~~~~
Started at: суббота, 07. 02. 2009. - 23:37.46
1 file found
1 -===- C:\Documents and Settings\OEM\Мои документы\Мои аудиозаписи\Barbra Streisand - Classical Barbra - 1976 (APE)\Barbra Streisand - Classical Barbra.ape
Extracted successfully
Conclusion: this track is CDDA with probability 100%
Tempfile successfully deleted.
Finished at: суббота, 07. 02. 2009. - 23:41.59 (operation time: 0:04.12)




Скачать торрент 158.18 МБ


Download
Для скачивания .torrent файлов необходима регистрация
Сайт не распространяет и не хранит электронные версии произведений, а лишь предоставляет доступ к создаваемому пользователями каталогу ссылок на торрент-файлы, которые содержат только списки хеш-сумм

Страница 1 из 1

Ответить на тему

   Похожие торренты   Торрент 




cron