Регистрация ·  Логин: Пароль: Запомнить   · Забыли пароль?




Ответить на тему
Статистика раздачи
Размер: 184.59 МБ | Зарегистрирован: 10 мар 2018, 13:19 | .torrent скачан: 0 раз(а)
Сидеров: [ 2  | 0 байт/сек ]   Личеров: [ 1  | 0 байт/сек ]   DHT: [ 2 / 1 ]
Автор Сообщение

Модератор
Аватара пользователя

Стаж: 6 лет
Сообщения: 7870
Молдова

Сообщение 10 мар 2018, 13:19 

[Цитировать]

Credo / Бах и Друзья (Старинная музыка)

Жанр: Classical
Год издания диска: 2002
Аудиокодек: FLAC
Тип рипа: image+.cue
Битрейт аудио: lossless
Продолжительность: 29:00
Источник: собственный рип
Наличие сканов в содержимом раздачи: да
Треклист:
01. Ария Из Кантаты 156 (И.С.Бах) [0:02:46.19]
02. "Badinerie" - Скерцо Из Сюиты Си Минор (И.С.Бах) [0:01:24.38]
03. Ария Из Кантаты №12 (И.С.Бах) [0:02:17.07]
04. Ария Из Мессы (Я.Щуровский) [0:01:35.00]
05. Ария Армидоро - Из Оперы"Отмщённая Стеллидаура" (Ф.Провенцале) [0:02:14.55]
06. Речетатив И Ария Ксеркса - Из Оперы"Ксеркс" (Г.Гендель) [0:05:01.20]
07. Ave-Maria (И.С.Бах) [0:02:50.57]
Концерт в 3-х частях (И.Хандошкин):
08. I [0:03:02.38]
09. II [0:04:45.48]
10. III [0:03:02.30]
Код:
Exact Audio Copy V0.99 prebeta 4 from 23. January 2008
Отчёт EAC об извлечении, выполненном 6. июня 2012, 6:59
Credo / Бах и Друзья
Дисковод: ASUS    DRW-1814BL   Adapter: 1  ID: 0
Режим чтения                 : Достоверность
Использование точного потока : Да
Отключение кэша аудио        : Да
Использование указателей C2  : Нет
Коррекция смещения при чтении                     : 6
Способность читать области Lead-in и Lead-out     : Нет
Заполнение пропущенных сэмплов тишиной            : Да
Удаление блоков с тишиной в начале и конце        : Нет
При вычислениях CRC использовались нулевые сэмплы : Да
Интерфейс                                         : Установленный внешний ASPI-интерфейс
Выходной формат          : Пользовательский кодировщик
Выбранный битрейт        : 1024 kBit/s
Качество                 : Высокий
Добавление ID3-тэга      : Нет
Утилита сжатия           : C:\Program Files\Exact Audio Copy\FLAC\FLAC.EXE
Дополнительные параметры : -6 -V -T "ARTIST=%a" -T "TITLE=%t" -T "ALBUM=%g" -T "DATE=%y" -T "TRACKNUMBER=%n" -T "GENRE=%m" -T "COMMENT=%e" %s -o %d
TOC извлечённого CD
     Трек |   Старт  | Длительность | Начальный сектор | Конечный сектор
    ---------------------------------------------------------------------
       1  |  0:00.00 |    2:46.19   |           0      |      12468
       2  |  2:46.19 |    1:24.38   |       12469      |      18806
       3  |  4:10.57 |    2:17.07   |       18807      |      29088
       4  |  6:27.64 |    1:35.00   |       29089      |      36213
       5  |  8:02.64 |    2:14.55   |       36214      |      46318
       6  | 10:17.44 |    5:01.20   |       46319      |      68913
       7  | 15:18.64 |    2:50.57   |       68914      |      81720
       8  | 18:09.46 |    3:02.38   |       81721      |      95408
       9  | 21:12.09 |    4:45.48   |       95409      |     116831
      10  | 25:57.57 |    3:02.30   |      116832      |     130511
Характеристики диапазона извлечения и сообщения об ошибках
Выбранный диапазон
     Имя файла G:\TOP-\LosslesS\credo'02\Credo - Бах и Друзья.wav
     Пиковый уровень 98.8 %
     Качество диапазона 100.0 %
     CRC теста EE3C00D9
     CRC копии EE3C00D9
     Копирование... OK
Ошибок не произошло
AccurateRip: сводка
Трек  1  нет в базе данных
Трек  2  нет в базе данных
Трек  3  нет в базе данных
Трек  4  нет в базе данных
Трек  5  нет в базе данных
Трек  6  нет в базе данных
Трек  7  нет в базе данных
Трек  8  нет в базе данных
Трек  9  нет в базе данных
Трек 10  нет в базе данных
Ни одного трека нет в базе AccurateRip
Конец отчёта
Доп. информация: Дипломат 1 международного московского органного фестиваля (ансамблевая органная музыка 2001 г.)Да даже не в этом дело,просто предлагаю познакомиться с данным ансамблем,желею только,что уж больно коротенький получился диск.
Елена Бутузова-композитор,органистка
Жанна Терехова-флейта
Денис Голубев-гобой,английский рожок
Алексей Толстов-виолончель
Дмитрий Степанович-бас


Скачать торрент 184.59 МБ


Download
Для скачивания .torrent файлов необходима регистрация
Сайт не распространяет и не хранит электронные версии произведений, а лишь предоставляет доступ к создаваемому пользователями каталогу ссылок на торрент-файлы, которые содержат только списки хеш-сумм

Страница 1 из 1

Ответить на тему

   Похожие торренты   Торрент 




cron