Регистрация ·  Логин: Пароль: Запомнить   · Забыли пароль?




Ответить на тему
Статистика раздачи
Размер: 369.9 МБ | Зарегистрирован: 10 мар 2018, 13:19 | .torrent скачан: 0 раз(а)
Сидеров: [ 0  | 0 байт/сек ]   Личеров: [ 0  | 0 байт/сек ]   DHT: [ 0 / 0 ]
Автор Сообщение

Модератор
Аватара пользователя

Стаж: 6 лет
Сообщения: 7870
Молдова

Сообщение 10 мар 2018, 13:19 

[Цитировать]

Meyerbeer - Grand Opera [Opera arias]

Жанр: Classical vocal
Страна-производитель диска: Made in the EU?
Год издания диска: 2017
Издатель (лейбл): Erato / Parlophone Records Limited, a Warner Music
Номер по каталогу: 9029584901
Дата записи: 2015
Аудиокодек: FLAC
Тип рипа: tracks+.cue
Битрейт аудио: lossless
Продолжительность: 81:27
Источник: релизер
сайт-источник/ник/другое: dtromp
Наличие сканов в содержимом раздачи: да
Код:
01. Le prophète: "Mon coeur s'élance et palpite" - Diana Damrau, Emmanuel Villaume & Orchestre de l'Opéra National de Lyon
02. Robert le Diable: "Robert, toi que j'aime" - Charles Workman, Diana Damrau, Emmanuel Villaume & Orchestre de l'Opéra National de Lyon
03. Alimelek: "Nur in der Dämm'rung Stille" - Diana Damrau, Emmanuel Villaume & Orchestre de l'Opéra National de Lyon
04. L'Étoile du Nord: "Ah, mon Dieu !… C'est bien l'air que chaque matin" - Choeurs de l'Opéra National de Lyon, Diana Damrau, Emmanuel Villaume & Orchestre de l'Opéra National de Lyon
05. L'africaine: "Là-bas, sous l'arbre noir… Fleurs nouvelles" - Diana Damrau, Emmanuel Villaume & Orchestre de l'Opéra National de Lyon
06. Il crociato in Egitto: "D'una madre disperata… Con qual gioia" - Choeurs de l'Opéra National de Lyon, Diana Damrau, Emmanuel Villaume, Laurent Naouri & Orchestre de l'Opéra National de Lyon
07. Le pardon de Ploërmel: "Comme cette nuit est lente à se dissiper !… Ombre légère" - Diana Damrau, Emmanuel Villaume & Orchestre de l'Opéra National de Lyon
08. Ein Feldlager in Schlesien: "Oh Schwester, find' ich dich!… Lebe wohl, geliebte Schwester" - Diana Damrau, Emmanuel Villaume, Kate Aldrich & Orchestre de l'Opéra National de Lyon
09. Emma di Resburgo: "Sulla rupe triste, sola… Ah questo bacio" - Choeurs de l'Opéra National de Lyon, Diana Damrau, Emmanuel Villaume & Orchestre de l'Opéra National de Lyon
10. Les Huguenots: "Ô beau pays de la Touraine" - Choeurs de l'Opéra National de Lyon, Diana Damrau, Emmanuel Villaume, Joanna Curelaru Kata, Orchestre de l'Opéra National de Lyon, Pascale Obrecht & Pei min Yu
11. L'africaine: "Anna, qu'entends-je ?… Adieu, mon doux rivage" - Diana Damrau, Emmanuel Villaume, Kate Aldrich & Orchestre de l'Opéra National de Lyon
Код:
Giacomo Meyerbeer
[b]Grand Opera[/b]
Diana Damrau (soprano)
Orchestre et Choeur de l'Opéra National de Lyon
Emmanuel Villaume, conductor
Релиз: 05.05.2017
Код:
Exact Audio Copy V1.3 from 2. September 2016
EAC extraction logfile from 17. November 2017, 21:02
Diana Damrau / Grand Opera
Used drive  : ATAPI   DVD A  DH16AAL   Adapter: 1  ID: 0
Read mode               : Secure
Utilize accurate stream : Yes
Defeat audio cache      : Yes
Make use of C2 pointers : No
Read offset correction                      : 6
Overread into Lead-In and Lead-Out          : No
Fill up missing offset samples with silence : Yes
Delete leading and trailing silent blocks   : No
Null samples used in CRC calculations       : Yes
Used interface                              : Native Win32 interface for Win NT & 2000
Gap handling                                : Appended to previous track
Used output format              : User Defined Encoder
Selected bitrate                : 1024 kBit/s
Quality                         : High
Add ID3 tag                     : No
Command line compressor         : C:\Program Files (x86)\Exact Audio Copy\Flac\flac.exe
Additional command line options : -8 -e -p -V -T "ARTIST=%artist%" -T "TITLE=%title%" -T "ALBUM=%albumtitle%" -T "DATE=%year%" -T "TRACKNUMBER=%tracknr%" -T "GENRE=%genre%" -T "PERFORMER=%albuminterpret%" -T "COMPOSER=%composer%" %haslyrics%--tag-from-file=LYRICS="%lyricsfile%"%haslyrics% -T "ALBUMARTIST=%albumartist%" -T "DISCNUMBER=%cdnumber%" -T "TOTALDISCS=%totalcds%" -T "TOTALTRACKS=%numtracks%" -T "COMMENT=%comment%" %source% -o %dest%
TOC of the extracted CD
     Track |   Start  |  Length  | Start sector | End sector
    ---------------------------------------------------------
        1  |  0:00.00 |  4:03.27 |         0    |    18251
        2  |  4:03.27 |  5:52.06 |     18252    |    44657
        3  |  9:55.33 |  6:17.41 |     44658    |    72973
        4  | 16:12.74 |  6:57.39 |     72974    |   104287
        5  | 23:10.38 |  5:33.62 |    104288    |   129324
        6  | 28:44.25 |  9:20.35 |    129325    |   171359
        7  | 38:04.60 |  8:20.14 |    171360    |   208873
        8  | 46:24.74 |  6:52.73 |    208874    |   239846
        9  | 53:17.72 |  6:39.00 |    239847    |   269771
       10  | 59:56.72 | 12:54.40 |    269772    |   327861
       11  | 72:51.37 |  8:33.68 |    327862    |   366404
Track  1
     Filename C:\Zelou\EAC Rips\Giacomo Meyerbeer Performed by Diana Damrau - Grand Opera (2017) [FLAC]\01 - Le Prophète.wav
     Pre-gap length  0:00:02.00
     Peak level 81.0 %
     Extraction speed 1.6 X
     Track quality 99.9 %
     Test CRC B4C7C1FA
     Copy CRC B4C7C1FA
     Accurately ripped (confidence 3)  [2E3E7B89]  (AR v2)
     Copy OK
Track  2
     Filename C:\Zelou\EAC Rips\Giacomo Meyerbeer Performed by Diana Damrau - Grand Opera (2017) [FLAC]\02 - Robert le Diable.wav
     Peak level 91.7 %
     Extraction speed 2.5 X
     Track quality 100.0 %
     Test CRC 524B7FBC
     Copy CRC 524B7FBC
     Accurately ripped (confidence 3)  [98C3D5B8]  (AR v2)
     Copy OK
Track  3
     Filename C:\Zelou\EAC Rips\Giacomo Meyerbeer Performed by Diana Damrau - Grand Opera (2017) [FLAC]\03 - Alimelek oder Die beiden Kalifen.wav
     Peak level 69.1 %
     Extraction speed 2.8 X
     Track quality 100.0 %
     Test CRC BDCAF646
     Copy CRC BDCAF646
     Accurately ripped (confidence 3)  [79E44561]  (AR v2)
     Copy OK
Track  4
     Filename C:\Zelou\EAC Rips\Giacomo Meyerbeer Performed by Diana Damrau - Grand Opera (2017) [FLAC]\04 - L'étoile du nord.wav
     Peak level 99.1 %
     Extraction speed 3.1 X
     Track quality 100.0 %
     Test CRC 7AD26B6A
     Copy CRC 7AD26B6A
     Accurately ripped (confidence 3)  [D5CE7CB2]  (AR v2)
     Copy OK
Track  5
     Filename C:\Zelou\EAC Rips\Giacomo Meyerbeer Performed by Diana Damrau - Grand Opera (2017) [FLAC]\05 - L'Africaine.wav
     Peak level 84.2 %
     Extraction speed 3.2 X
     Track quality 100.0 %
     Test CRC 1C72B04A
     Copy CRC 1C72B04A
     Accurately ripped (confidence 3)  [85C813AF]  (AR v2)
     Copy OK
Track  6
     Filename C:\Zelou\EAC Rips\Giacomo Meyerbeer Performed by Diana Damrau - Grand Opera (2017) [FLAC]\06 - Il Crociato in Egitto.wav
     Peak level 99.0 %
     Extraction speed 3.6 X
     Track quality 100.0 %
     Test CRC B76069DC
     Copy CRC B76069DC
     Accurately ripped (confidence 3)  [66F92763]  (AR v2)
     Copy OK
Track  7
     Filename C:\Zelou\EAC Rips\Giacomo Meyerbeer Performed by Diana Damrau - Grand Opera (2017) [FLAC]\07 - Dinorah.wav
     Peak level 97.8 %
     Extraction speed 3.9 X
     Track quality 100.0 %
     Test CRC C2B24AD0
     Copy CRC C2B24AD0
     Accurately ripped (confidence 3)  [52BD08AF]  (AR v2)
     Copy OK
Track  8
     Filename C:\Zelou\EAC Rips\Giacomo Meyerbeer Performed by Diana Damrau - Grand Opera (2017) [FLAC]\08 - Ein Feldlager in Schlesien.wav
     Peak level 95.1 %
     Extraction speed 3.3 X
     Track quality 99.9 %
     Test CRC 2BF9D112
     Copy CRC 2BF9D112
     Accurately ripped (confidence 3)  [4F32835F]  (AR v2)
     Copy OK
Track  9
     Filename C:\Zelou\EAC Rips\Giacomo Meyerbeer Performed by Diana Damrau - Grand Opera (2017) [FLAC]\09 - Emma di Resburgo.wav
     Peak level 91.5 %
     Extraction speed 4.2 X
     Track quality 100.0 %
     Test CRC A6AC308D
     Copy CRC A6AC308D
     Accurately ripped (confidence 3)  [70EDA2A5]  (AR v2)
     Copy OK
Track 10
     Filename C:\Zelou\EAC Rips\Giacomo Meyerbeer Performed by Diana Damrau - Grand Opera (2017) [FLAC]\10 - Les Huguenots.wav
     Peak level 96.8 %
     Extraction speed 4.1 X
     Track quality 99.9 %
     Test CRC C88C953A
     Copy CRC C88C953A
     Accurately ripped (confidence 3)  [8B463BFF]  (AR v2)
     Copy OK
Track 11
     Filename C:\Zelou\EAC Rips\Giacomo Meyerbeer Performed by Diana Damrau - Grand Opera (2017) [FLAC]\11 - L'Africaine.wav
     Peak level 93.8 %
     Extraction speed 4.1 X
     Track quality 99.9 %
     Test CRC 395E30DA
     Copy CRC 395E30DA
     Accurately ripped (confidence 3)  [06175B63]  (AR v2)
     Copy OK
All tracks accurately ripped
No errors occurred
End of status report
---- CUETools DB Plugin V2.1.6
[CTDB TOCID: uAryyIdTWfSO0L0WoU8UjSC4vaM-] found
Submit result: uAryyIdTWfSO0L0WoU8UjSC4vaM- has been confirmed
Track | CTDB Status
  1   | (22/22) Accurately ripped
  2   | (22/22) Accurately ripped
  3   | (22/22) Accurately ripped
  4   | (22/22) Accurately ripped
  5   | (22/22) Accurately ripped
  6   | (22/22) Accurately ripped
  7   | (22/22) Accurately ripped
  8   | (22/22) Accurately ripped
  9   | (22/22) Accurately ripped
 10   | (22/22) Accurately ripped
 11   | (22/22) Accurately ripped
==== Log checksum 31D6787375DDEE646899F4CDCC18AF614CE0351B12CA1DB70B1280C3FC6426C2 ====
Код:
REM GENRE Opera
REM DATE 2017
REM DISCID BE13150B
REM COMMENT "ExactAudioCopy v1.3"
CATALOG 0190295849016
PERFORMER "Diana Damrau"
TITLE "Grand Opera"
REM COMPOSER "Giacomo Meyerbeer"
FILE "01 - Le Prophète.wav" WAVE
  TRACK 01 AUDIO
    TITLE "Le Prophète"
    PERFORMER "Diana Damrau"
    REM COMPOSER "Giacomo Meyerbeer"
    INDEX 01 00:00:00
FILE "02 - Robert le Diable.wav" WAVE
  TRACK 02 AUDIO
    TITLE "Robert le Diable"
    PERFORMER "Diana Damrau"
    REM COMPOSER "Giacomo Meyerbeer"
    INDEX 01 00:00:00
FILE "03 - Alimelek oder Die beiden Kalifen.wav" WAVE
  TRACK 03 AUDIO
    TITLE "Alimelek oder Die beiden Kalifen"
    PERFORMER "Diana Damrau"
    REM COMPOSER "Giacomo Meyerbeer"
    INDEX 01 00:00:00
FILE "04 - L'étoile du nord.wav" WAVE
  TRACK 04 AUDIO
    TITLE "L'étoile du nord"
    PERFORMER "Diana Damrau"
    REM COMPOSER "Giacomo Meyerbeer"
    INDEX 01 00:00:00
FILE "05 - L'Africaine.wav" WAVE
  TRACK 05 AUDIO
    TITLE "L'Africaine"
    PERFORMER "Diana Damrau"
    REM COMPOSER "Giacomo Meyerbeer"
    INDEX 01 00:00:00
FILE "06 - Il Crociato in Egitto.wav" WAVE
  TRACK 06 AUDIO
    TITLE "Il Crociato in Egitto"
    PERFORMER "Diana Damrau"
    REM COMPOSER "Giacomo Meyerbeer"
    INDEX 01 00:00:00
FILE "07 - Dinorah.wav" WAVE
  TRACK 07 AUDIO
    TITLE "Dinorah"
    PERFORMER "Diana Damrau"
    REM COMPOSER "Giacomo Meyerbeer"
    INDEX 01 00:00:00
FILE "08 - Ein Feldlager in Schlesien.wav" WAVE
  TRACK 08 AUDIO
    TITLE "Ein Feldlager in Schlesien"
    PERFORMER "Diana Damrau"
    REM COMPOSER "Giacomo Meyerbeer"
    INDEX 01 00:00:00
FILE "09 - Emma di Resburgo.wav" WAVE
  TRACK 09 AUDIO
    TITLE "Emma di Resburgo"
    PERFORMER "Diana Damrau"
    REM COMPOSER "Giacomo Meyerbeer"
    INDEX 01 00:00:00
FILE "10 - Les Huguenots.wav" WAVE
  TRACK 10 AUDIO
    TITLE "Les Huguenots"
    PERFORMER "Diana Damrau"
    REM COMPOSER "Giacomo Meyerbeer"
    INDEX 01 00:00:00
FILE "11 - L'Africaine.wav" WAVE
  TRACK 11 AUDIO
    TITLE "L'Africaine"
    PERFORMER "Diana Damrau"
    REM COMPOSER "Giacomo Meyerbeer"
    INDEX 01 00:00:00
Код:
Giacomo Meyerbeer, the master of Parisian grand opera, was hugely successful in his time and a major influence on Verdi and Wagner. His music has fascinated Diana Damrau since her student days. With her brilliant coloratura, lyricism and dramatic power, the soprano rises triumphantly to the vocal and expressive challenges of arias from 10 of his operas, singing in French, Italian and German. Two of the arias receive their world premiere recording with this album.
The idea of a Meyerbeer album has been close to Diana Damrau’s heart since she first recorded for Erato back in 2006. She became fascinated by the composer’s music as a student in Würzburg, when she was invited to perform his cantata Gli amori di Teolinda. “I immersed myself in Meyerbeer’s world,” she explains, “and was excited by his multifaceted writing for the voice, by his orchestral colours, his theatrical instincts, the powerful and varied way in which he expresses emotion, his splendid melodies and, last but not least, his ability to capture precisely the right ‘national style’. If you compare his Italian, German and French works, it is like listening to three different composers.”
Код:
To many, Diana Damrau is the complete coloratura soprano: with a beautiful voice and astounding technique that allow her to reach the highest notes with seeming ease, she has a keen sense for drama, giving her operatic characters real emotions and total believability. She also exudes a likeable quality on-stage, and, her many fans eagerly note, sex appeal. While she is perhaps best known for roles in Mozart and Richard Strauss operas, her repertory takes in operas by Vivaldi, Beethoven, Rossini, Donizetti, Verdi, Wagner, and many others. She also sings lieder by Richard Strauss, Brahms, Mendelssohn, Fanny Mendelssohn-Hensel, Robert and Clara Schumann, Chopin, Liszt, Mahler, Berg, and Wolf. Damrau has appeared at the Met countless times since 2005 and has made regular appearances at Covent Garden, the Vienna State Opera, Bavarian State Opera, and at the leading concert venues, including Carnegie Hall and the Vienna Musikverein. Damrau's recordings are available from EMI, Virgin Classics, DG, Opus Arte, and other major labels. Diana Damrau was born in Günzburg, Germany, on May 31, 1971. Her vocal studies were at the Würzburg Musikhochschule, where her teachers included Carmen Hanganu. Damrau had further studies in Salzburg with Hanna Ludwig. Damrau steadily built her career, beginning with appearances at the Stadttheater Würzburg, and then at the Nationaltheater Mannheim and the Frankfurt Opera. During this period Damrau often sang in operettas (e.g., Lehár's The Merry Widow) and musicals (My Fair Lady). Damrau debuted at Covent Garden in 2003 as the Queen of the Night in Mozart's The Magic Flute. The following year she sang the title role in Salieri's L'Europa riconosciuta in a television broadcast from La Scala, Riccardo Muti conducting. The breakthroughs continued with her 2005 Met debut as Zerbinetta in Richard Strauss' Ariadne auf Naxos. In November 2007 Damrau astounded Met audiences when she sang Pamina for six performances and then, in the same run, the difficult Queen of the Night for two. 2007 was also the year her first major recordings were issued, six of them! They included The Magic Flute (Decca), Mozart's Ascanio in Alba (DG), and Mahler's Des Knaben Wunderhorn (Telos). After the birth of a son in 2010, Damrau resumed her busy schedule: in January 2011 she sang Elvira in Bellini's I puritani in Geneva, and then returned to the Met in March and April 2011 as Countess Adèle in Rossini's Le Comte Ory and as Gilda in Verdi's Rigoletto.


Скачать торрент 369.9 МБ


Download
Для скачивания .torrent файлов необходима регистрация
Сайт не распространяет и не хранит электронные версии произведений, а лишь предоставляет доступ к создаваемому пользователями каталогу ссылок на торрент-файлы, которые содержат только списки хеш-сумм

Страница 1 из 1

Ответить на тему

   Похожие торренты   Торрент