Регистрация ·  Логин: Пароль: Запомнить   · Забыли пароль?




Ответить на тему
Статистика раздачи
Размер: 278.84 МБ | Зарегистрирован: 10 мар 2018, 13:19 | .torrent скачан: 0 раз(а)
Сидеров: [ 0  | 0 байт/сек ]   Личеров: [ 0  | 0 байт/сек ]   DHT: [ 0 / 0 ]
Автор Сообщение

Модератор
Аватара пользователя

Стаж: 6 лет
Сообщения: 7870
Молдова

Сообщение 10 мар 2018, 13:19 

[Цитировать]

Placido Domingo - Italia, ti amo

Жанр: Classical/Vocal
Год выпуска диска: 2006
Производитель диска: Украина (лицензия)
Аудио кодек: APE
Тип рипа: image+.cue
Битрейт аудио: lossless
Продолжительность: 60:35
Лейбл: Deutshe Grammophon
Источник: собственный рип, full scan 300dpi
Трэклист:
1. Furio Rendine - Vurria
2. Stanislao Gastaldon - Musica Proibita
3. Cesare Andrea Bixio - Mamma
4. Ernesto Tagliaferri - Nun Me Sceta'
5. Lorena Tassinari - Al Di La Del Cielo
6. Ernesto De Curtis - Tu Ca Nun Chiagne
7. Eldo Di Lazzaro - Chitarra Romana
8. Emanuele Nutile - Mamma Mia, Che Vo' Sape'
9. Rodolfo Falvo - Dicitencello Vuje
10. Francesco Paolo Tosti - Non T'amo Piu
11. Placido Domingo Jr. - Quarant'anni
12. Eduardo Di Capua / Alfredo Mazzucchi - I' Te Vurria Vasa'
13. Virgilio Panzuti - Mandulinate 'E Sera
14. Giuseppe Cioffi - Na Sera 'E Maggio
15. Ernesto Tagliaferri / Nicola Valente - Passione
16. Salvatore Cardillo - Catari', Catari' (Core 'Ngrato)
Placido Domingo, tenor
Budapest Philharmonic Orchestra
Eugene Kohn
Recording: Italian Cultural Institute, Budapest (07/2005 - 08/2005)
Код:
Exact Audio Copy V0.99 prebeta 4 from 23. January 2008
Отчёт EAC об извлечении, выполненном 6. сентября 2009, 20:34
Placido Domingo / Italia, ti amo
Дисковод: Optiarc DVD RW AD-7200A   Adapter: 3  ID: 1
Режим чтения                 : Достоверность
Использование точного потока : Да
Отключение кэша аудио        : Да
Использование указателей C2  : Нет
Коррекция смещения при чтении                     : 48
Способность читать области Lead-in и Lead-out     : Нет
Заполнение пропущенных сэмплов тишиной            : Да
Удаление блоков с тишиной в начале и конце        : Нет
При вычислениях CRC использовались нулевые сэмплы : Да
Интерфейс                                         : Установленный внешний ASPI-интерфейс
Выходной формат : Внутренние WAV-операции
Формат сэмплов  : 44.100 Гц; 16 бит; стерео
TOC извлечённого CD
     Трек |   Старт  | Длительность | Начальный сектор | Конечный сектор
    ---------------------------------------------------------------------
       1  |  0:00.00 |    3:31.00   |           0      |      15824
       2  |  3:31.00 |    3:01.00   |       15825      |      29399
       3  |  6:32.00 |    3:44.00   |       29400      |      46199
       4  | 10:16.00 |    4:01.00   |       46200      |      64274
       5  | 14:17.00 |    4:36.00   |       64275      |      84974
       6  | 18:53.00 |    2:48.00   |       84975      |      97574
       7  | 21:41.00 |    3:08.00   |       97575      |     111674
       8  | 24:49.00 |    3:46.00   |      111675      |     128624
       9  | 28:35.00 |    3:46.00   |      128625      |     145574
      10  | 32:21.00 |    4:30.00   |      145575      |     165824
      11  | 36:51.00 |    3:56.00   |      165825      |     183524
      12  | 40:47.00 |    3:15.00   |      183525      |     198149
      13  | 44:02.00 |    4:05.00   |      198150      |     216524
      14  | 48:07.00 |    3:12.38   |      216525      |     230962
      15  | 51:19.38 |    4:09.37   |      230963      |     249674
      16  | 55:29.00 |    5:06.38   |      249675      |     272662
Характеристики диапазона извлечения и сообщения об ошибках
Выбранный диапазон
     Имя файла E:\Up-Down\Placido Domingo - Italia, ti amo\Placido Domingo - Italia, ti amo.wav
     Пиковый уровень 100.0 %
     Качество диапазона 100.0 %
     CRC копии 02080BFE
     Копирование... OK
Ошибок не произошло
Конец отчёта
Код:
AUDIOCHECKER v1.2 - by Dester - [email protected]
~~~~~~~~~~~~~~~~~
1 -===- E:\Up-Down\Placido Domingo - Italia, ti amo\Placido Domingo - Italia, ti amo.ape
  Extracted successfully
  Conclusion: This track looks like CDDA with probability 100%


Скачать торрент 278.84 МБ


Download
Для скачивания .torrent файлов необходима регистрация
Сайт не распространяет и не хранит электронные версии произведений, а лишь предоставляет доступ к создаваемому пользователями каталогу ссылок на торрент-файлы, которые содержат только списки хеш-сумм

Страница 1 из 1

Ответить на тему

   Похожие торренты   Торрент