Регистрация ·  Логин: Пароль: Запомнить   · Забыли пароль?




Ответить на тему
Статистика раздачи
Размер: 292.46 МБ | Зарегистрирован: 10 мар 2018, 13:19 | .torrent скачан: 0 раз(а)
Сидеров: [ 0  | 0 байт/сек ]   Личеров: [ 0  | 0 байт/сек ]   DHT: [ 0 / 0 ]
Автор Сообщение

Модератор
Аватара пользователя

Стаж: 6 лет
Сообщения: 7870
Молдова

Сообщение 10 мар 2018, 13:19 

[Цитировать]

Placido Domingo - Songs Of Love
Жанр: Vocal
Год выпуска диска: 2000
Производитель диска: EMI Украина(лицензия)
Аудио кодек: FLAC
Тип рипа: image+.cue
Битрейт аудио: lossless
Продолжительность: 52.45Трэклист:
01 Love Story*
02 O sole mio*
03 Be My Love*
04 Sabor a mi**
05 Somewhere My Love*
06 En Aranjuez con tu amor*
07 Spanish Eyes*
08 Sabras que te quiero***
09 Aquellos ojos verdes***
10 Alma latina**
11 Somewhere Over the Rainbow*
12 El condor pasa*
13 Jealousi Tango*
14 Love Be My Guiding Star*
01 Love Story (F. Lai/C. Sigman)*
02 O sole mio (E. di Capua/G. Capurro)*
03 Be My Love (N. Brodszky/S. Cahn)*
04 Sabor a mi (A. Carrillo;Peer Intarnational Corporation)**
05 Somewhere My Love (M. Janne/P.F. Webster)*
06 En Aranjuez con tu amor (J. Rodrigo/A.G. Segura)*
07 Spanish Eyes (B. Kempfert/C. Singleton/E. snider)*
08 Sabras que te quiero (T. Fregoso/Peer Intarnational Corporation)***
09 Aquellos ojos verdes (Green Eyes) (A. Utera/N. Mernendes/Peer Intarnational Corporation/C. Connelli)***
10 Alma latina (P. Domingo jnr.)**
11 Somewhere Over the Rainbow (H. Arlen/E.Y. Harburg)*
12 El condor pasa (D.A. Rodles/J. Michberg/M. Clavero)*
13 Jealousi Tango (J. Gade/G. Dasca)*
14 Love Be My Guiding Star (R. Tauber/A. Carstens)**
Prodused by Alex Mayer-Wolden
Aranged by Boris Joric & Lazlo Becker
Playbeks produser by Dario Farina & Boris Joric
Sound enginier: Mel Luker
Mixed by Alex Mayer-Wolden
Choir arragiment by Uve Shicora
Conducted by Eugn Kohn & Boris Jojic
All keybards by Lazlo Bencker
Classical guitar: Peter Horton
Pan flut: G. Solera**
Produser: Bebu Silvetti
Arrangement and conducted by Bebu Silvetti
Guitar and mandolin: Manuel Lopes
Piano and keybords: Bebu Silvetti
Electric Bass: Julio Hernandez
Drums: Orlando Hernandes
Percusion: Rafael Solano
Oboe: John J. Dee
Saxophone: Ed Calle, Billi Ross, Micheael Bringola
Trumped: Tony Conception
Trombone: Dana Teboe
Luena & zampona: Edvin Castelanos, Fernando Torrico
Charango: Fernando Torrico
Bechgraund Vocals: Liliana Rodriges, Lena Perez, Edvin Castellanos,
Frnando Torrico The VVC Simpfonic Orchestra
Consertmaster: Alfredo Olivia
Compining Servises: Natanael Burgos
Recorded in Miami (Criteria Recording Studious) and in New York (The Hit Factory)
Recording engineerrs Joel Numa, Glen Marchese***
Produser: Bebu Silvetti
Arrangement and conducted by Bebu Silvetti
Gitars: Grant Geissman, Den Parks, Ramon Stagnaro
Bass: Jimmy Johnson? Nathan East
Drums: Carlos Vega
Percussion: Alex Acuna, Micito Sanches, Luis Conte, Efrain Toro,Larry Buncer
Horn: Josepf Mayer, Marc Adam, Diane Muller
Saxophone: Daniel Haggins, Donald Markese, Lusto Almario, John Youcum,Greg Huckins
Trampler: Charlie Davis, larry Hall, Gerry Hey, Romon Flores
Flute: James Walker, Gary Woodward, Gerldine Rotella
Clarinel: Roy d'Antonio, charles Boito
Harp: Amy Shulman
Oboe: Joel Timm
Luena: Hector Vargas
Paragugan Harp: Luis Felipe Gonzalez
Mondolin: John Bilezikjian, Emanuel Skeynkman, Jon Kurnick
Cuatro venezolano: Olga Pineros
Bandoneon: Jorge Trivisonno
Piano & Synthesizer: Bebu Silvetti
Bechgraund vocals: Ana Robles, Sara Traina, Giselda Vatcky, Bibi Cross-Nicolosi,
francis Benitez, Carlos Murguia, Daniel Indart, Yari More, Pierre Garreaud The VVC Simpfonic Orchestra
Consertmaster: Erza kliger
Exact Audio Copy V0.99 prebeta 4 from 23. January 2008
EAC extraction logfile from 2. February 2010, 10:56
Placido Domingo / Song of Love
Used drive : SONY DVD RW DW-Q28A Adapter: 3 ID: 1
Read mode : Secure
Utilize accurate stream : Yes
Defeat audio cache : Yes
Make use of C2 pointers : No
Read offset correction : 12
Overread into Lead-In and Lead-Out : No
Fill up missing offset samples with silence : Yes
Delete leading and trailing silent blocks : No
Null samples used in CRC calculations : No
Used interface : Native Win32 interface for Win NT & 2000
Used output format : User Defined Encoder
Selected bitrate : 768 kBit/s
Quality : High
Add ID3 tag : No
Command line compressor : C:\Program Files\Exact Audio Copy\FLAC\FLAC.EXE
Additional command line options : -6 -V -T "ARTIST=%a" -T "TITLE=%t" -T "ALBUM=%g" -T "DATE=%y" -T "TRACKNUMBER=%n" -T "GENRE=%m" -T "COMMENT=%e" %s -o %d
TOC of the extracted CD
Track | Start | Length | Start sector | End sector
---------------------------------------------------------
1 | 0:00.00 | 4:25.17 | 0 | 19891
2 | 4:25.17 | 2:59.05 | 19892 | 33321
3 | 7:24.22 | 3:12.20 | 33322 | 47741
4 | 10:36.42 | 6:28.00 | 47742 | 76841
5 | 17:04.42 | 4:10.03 | 76842 | 95594
6 | 21:14.45 | 2:48.62 | 95595 | 108256
7 | 24:03.32 | 3:09.30 | 108257 | 122461
8 | 27:12.62 | 3:39.58 | 122462 | 138944
9 | 30:52.45 | 3:51.72 | 138945 | 156341
10 | 34:44.42 | 4:05.45 | 156342 | 174761
11 | 38:50.12 | 4:01.23 | 174762 | 192859
12 | 42:51.35 | 3:04.27 | 192860 | 206686
13 | 45:55.62 | 2:47.35 | 206687 | 219246
14 | 48:43.22 | 4:00.28 | 219247 | 237274
Range status and errors
Selected range
Filename C:\Documents and Settings\Admin\Мои документы\Моя музыка\Placido Domingo - Song of Love.wav
Peak level 98.4 %
Range quality 100.0 %
Test CRC C9C96723
Copy CRC C9C96723
Copy OK
No errors occurred
End of status report






Скачать торрент 292.46 МБ


Download
Для скачивания .torrent файлов необходима регистрация
Сайт не распространяет и не хранит электронные версии произведений, а лишь предоставляет доступ к создаваемому пользователями каталогу ссылок на торрент-файлы, которые содержат только списки хеш-сумм

Страница 1 из 1

Ответить на тему

   Похожие торренты   Торрент 




cron