Регистрация ·  Логин: Пароль: Запомнить   · Забыли пароль?




Ответить на тему
Статистика раздачи
Размер: 809.28 МБ | Зарегистрирован: 10 мар 2018, 13:19 | .torrent скачан: 0 раз(а)
Сидеров: [ 1  | 0 байт/сек ]   Личеров: [ 0  | 0 байт/сек ]   DHT: [ 1 / 0 ]
Автор Сообщение

Модератор
Аватара пользователя

Стаж: 6 лет
Сообщения: 7870
Молдова

Сообщение 10 мар 2018, 13:19 

[Цитировать]

Handel: Hercules / Геркулес (Junge Kantorei, Frankfurt Baroque Orchestra, Joachim Carlos Martini)

Жанр: Baroque oratorio
Страна-производитель диска: Germany
Год издания диска: 2008
Издатель (лейбл): Label: Naxos
Номер по каталогу: 8.557960-62
Дата записи: 2007
Аудиокодек: FLAC
Тип рипа: tracks+.cue
Битрейт аудио: lossless
Продолжительность: CD1 69'29 , CD2 73'22 , CD3 46'58 / Total Playing Time: 03:09:53
Источник: релизер
сайт-источник/ник/другое: kgkk
Наличие сканов в содержимом раздачи: да
Треклист:
CD1
1. Act I: Overture 00:04:12
2. Act I: Menuetto 00:02:10
3. Act I: Accompagnato: See, with what sad dejection in her looks (Lichas) 00:01:30
Vitzthum, Franz, counter-tenor
4. Act I: Aria: No longer, fate, relentless frown (Lichas) 00:05:36
Vitzthum, Franz, counter-tenor
5. Act I: Accompagnato: O, Hercules, why art thou absent from me? (Dejanira) 00:00:42
Wemyss, Nicola, mezzo-soprano
6. Act I: Aria: The world, when day's career is run (Dejanira) 00:03:17
Wemyss, Nicola, mezzo-soprano
7. Act I: Recitative: Princess! Be comforted, and hope the best! (Lichas, Dejanira, Hyllus) 00:01:44
Vitzthum, Franz, counter-tenor
Wemyss, Nicola, mezzo-soprano
Schoch, Knut, tenor
8. Act I: Arioso: I feel, I feel the god, he swells my breast (Hyllus) 00:01:38
Schoch, Knut, tenor
9. Act I: Recitative: He said the sacred fury left his breast (Hyllus, Dejanira) 00:00:54
Schoch, Knut, tenor
Wemyss, Nicola, mezzo-soprano
10. Act I: Aria: There, in myrtle shades reclin'd (Dejanira) 00:02:21
Wemyss, Nicola, mezzo-soprano
11. Act I: Recitative: Despair not, but let rising hope suspend (Hyllus) 00:00:40
Schoch, Knut, tenor
12. Act I: Aria: Where congeal'd the northern streams (Hyllus) 00:02:03
Schoch, Knut, tenor
13. Act I: O filial piety, O gen'rous love! (Chorus) 00:05:17
Junge Kantorei
14. Act I: Recitative: Banish your fears! The noble Hercules lives (Lichas, Dejanira) 00:00:31
Vitzthum, Franz, counter-tenor
Wemyss, Nicola, mezzo-soprano
15. Act I: Aria: Begone, my fears, fly hence, away (Dejanira) 00:03:30
Wemyss, Nicola, mezzo-soprano
16. Act I: Recitative: A train of captives, red with honest wounds (Lichas, Hyllus, Dejanira) 00:01:03
Vitzthum, Franz, counter-tenor
Schoch, Knut, tenor
Wemyss, Nicola, mezzo-soprano
17. Act I: Aria: The smiling hours of joyful train (Lichas) 00:04:09
Vitzthum, Franz, counter-tenor
18. Act I: Let none despair; relief may come though late (Chorus) 00:02:43
19. Act I: Recitative: Ye faithful followers of the wretched Iole (Iole, First Oechalian) 00:01:27
Samann, Gerlinde, soprano
Kuhn, Liselotte, soprano
20. Act I: Aria: Daughter of Gods, bright liberty! (Iole) 00:08:45
Samann, Gerlinde, soprano
21. Act I: Recitative: But hark! The victor comes! (Iole) 00:00:08
Samann, Gerlinde, soprano
22. Act I: March 00:01:47
23. Act I: Recitative: Thanks to the pow'rs above (Hercules, Iole) 00:01:43
Kooij, Peter, bass
Samann, Gerlinde, soprano
24. Act I: Aria: My father! Ah, methinks I see (Iole) 00:05:21
Samann, Gerlinde, soprano
25. Act I: Recitative: Now farewell, arms! From hence, the tide of time (Hercules) 00:00:28
Kooij, Peter, bass
26. Act I: Aria: The God of battle quits the bloody field (Hercules) 00:02:50
Kooij, Peter, bass
27. Act I: Crown with festal pomp the day (Chorus) 00:03:01
CD2
1. Act II: Sinfonia 00:01:21
2. Act II: Recitative: Why was I born a princess, rais'd on high (Iole) 00:00:23
Samann, Gerlinde, soprano
3. Act II: Aria: How blest the maid ordained to dwell (Iole) 00:05:25
Samann, Gerlinde, soprano
4. Act II: Recitative: It must be so! Fame speaks aloud my wrongs (Dejanira, Iole) 00:01:33
Wemyss, Nicola, mezzo-soprano
Samann, Gerlinde, soprano
5. Act II: Aria: When beauty sorrow's liv'ry wears (Dejanira) 00:03:17
Wemyss, Nicola, mezzo-soprano
6. Act II: Recitative: Whence this unjust suspicion? (Iole, Dejanira) 00:01:16
Samann, Gerlinde, soprano
Wemyss, Nicola, mezzo-soprano
7. Act II: Ah, think what ills the jealous prove! (Iole) 00:06:00
Samann, Gerlinde, soprano
8. Act II: Recitative: It is too sure that Hercules is false (Dejanira) 00:00:06
Wemyss, Nicola, mezzo-soprano
9. Act II: Recitative: My godlike master? (Lichas, Dejanira) 00:00:16
Vitzthum, Franz, counter-tenor
Wemyss, Nicola, mezzo-soprano
10. Act II: Aria: As stars, that rise and disappear (Lichas) 00:05:06
Vitzthum, Franz, counter-tenor
11. Act II: Recitative: In vain you strive his falsehood to disguise (Dejanira, Lichas) 00:00:16
Wemyss, Nicola, mezzo-soprano
Vitzthum, Franz, counter-tenor
12. Act II: Jealousy! Infernal pest (Chorus) 00:04:23
13. Act II: Recitative: She knows my passion, and has heard me breathe (Hyllus, Iole) 00:02:30
Schoch, Knut, tenor
Samann, Gerlinde, soprano
14. Act II: Aria: Banish love from thy breast (Iole) 00:05:00
Samann, Gerlinde, soprano
15. Act II: Recitative: Forgive a passion, which resistless sways (Hyllus) 00:00:14
Schoch, Knut, tenor
16. Act II: Aria: From celestial seats descending (Hyllus) 00:04:44
Schoch, Knut, tenor
17. Act II: Wanton god of amorous fires (Chorus) 00:02:19
18. Act II: Recitative: Yes, I congratulate your titles (Dejanira, Hercules) 00:00:41
Wemyss, Nicola, mezzo-soprano
Kooij, Peter, bass
19. Act II: Aria: Alcides' name in latest story (Hercules) 00:04:32
Kooij, Peter, bass
20. Act II: Recitative: O, glorious pattern of heroic deeds! (Dejanira) 00:00:29
Wemyss, Nicola, mezzo-soprano
21. Act II: Aria: Resign thy club and lion's spoils (Dejanira) 00:04:48
Wemyss, Nicola, mezzo-soprano
22. Act II: Recitative: You are deceived! (Hercules, Dejanira) 00:01:22
Kooij, Peter, bass
Wemyss, Nicola, mezzo-soprano
23. Act II: Aria: Cease, ruler of the day, to rise (Dejanira) 00:02:40
Wemyss, Nicola, mezzo-soprano
24. Act II: Recitative: Some kinder pow'r inspire me to regain (Dejanira, Lichas) 00:01:18
Wemyss, Nicola, mezzo-soprano
Vitzthum, Franz, counter-tenor
25. Act II: Aria: Constant lovers never roving (Lichas) 00:02:02
Vitzthum, Franz, counter-tenor
26. Act II: Recitative: But see, the princess Iole. Retire! (Dejanira, Iole) 00:01:26
Wemyss, Nicola, mezzo-soprano
Samann, Gerlinde, soprano
27. Act II: Aria: Still caressing and caress'd (Iole) 00:02:11
Samann, Gerlinde, soprano
28. Act II: Duet: Joys of freedom, joys of pow'r (Dejanira, Iole) 00:03:00
Wemyss, Nicola, mezzo-soprano
Samann, Gerlinde, soprano
29. Act II: Recitative: Father of Hercules, great Jove, oh help (Dejanira) 00:00:17
Wemyss, Nicola, mezzo-soprano
30. Act II: Love and Hymen, hand in hand (Chorus) 00:04:28
CD3
1. Act III: Sinfonia 00:03:05
2. Act III: Recitative: Ye sons of Trachin, mourn your valiant chief (Lichas, First Trachinian) 00:01:40
Vitzthum, Franz, counter-tenor
Schneider, Franz, bass
3. Act III: Aria: O scene of unexampled woe (Lichas) 00:02:52
Vitzthum, Franz, counter-tenor
4. Act III: Recitative: O fatal jealousy (First Trachinian) 00:00:17
Schneider, Franz, bass
5. Act III: Tyrants now no more shall dread (Chorus) 00:03:04
6. Act III: Aria: O Jove, what land is this, what clime accurst (Hercules) 00:02:26
Kooij, Peter, bass
7. Act III: Recitative: Great Jove, relieve his pains! (Hyllus) 00:00:07
Schoch, Knut, tenor
8. Act III: Accompagnato: Was it for this unnumber'd toils I bore? (Hercules, Hyllus) 00:02:06
Kooij, Peter, bass
Schoch, Knut, tenor
9. Act III: Aria: Let not fame the tidings spread (Hyllus) 00:04:36
Schoch, Knut, tenor
10. Act III: Accompagnato: Where shall I fly? Where hide this guilty head? (Dejanira) 00:06:00
Wemyss, Nicola, mezzo-soprano
11. Act III: Recitative: Lo! The fair fatal cause of all this ruin! (Dejanira, Iole) 00:01:14
Wemyss, Nicola, mezzo-soprano
Samann, Gerlinde, soprano
12. Act III: Aria: My breast with tender pity swells (Iole) 00:07:01
Samann, Gerlinde, soprano
13. Act III: Recitative - Accompagnato: Princess, rejoice, whose Heav'n - directed hand (Priest of Jupiter, Dejanira) 00:01:55
Kooij, Peter, bass
Wemyss, Nicola, mezzo-soprano
14. Act III: Aria: He, who for Atlas prop'd the sky (Lichas) 00:02:05
Vitzthum, Franz, counter-tenor
15. Act III: Recitative - Accompagnato: Words are too faint to speak the warring passions (Dejanira, Priest of Jupiter) 00:00:48
Wemyss, Nicola, mezzo-soprano
Kooij, Peter, bass
16. Act III: Recitative: How blest is Hyllus, if the lovely Iole (Hyllus, Iole) 00:00:21
Schoch, Knut, tenor
Samann, Gerlinde, soprano
17. Act III: Duet: Oh prince, whose virtues all admire (Iole, Hyllus) 00:03:29
Samann, Gerlinde, soprano
Schoch, Knut, tenor
18. Act III: Recitative: Ye sons of freedom, now, in every clime (Priest of Jupiter) 00:00:20
Kooij, Peter, bass
19. Act III: To him your grateful notes of praise belong (Chorus) 00:03:34
Исполнители:
George Frideric Handel (1685 - 1759)
Hercules, HWV 60
A Musical Drama in Three Acts
Words by Thomas Broughton
Wemyss, Nicola, mezzo-soprano
Samann, Gerlinde, soprano
Vitzthum, Franz, counter-tenor
Schoch, Knut, tenor
Kooij, Peter, bass
Kuhn, Liselotte, soprano
Schneider, Franz, bass
Junge Kantorei
Frankfurt Baroque Orchestra
Joachim Carlos Martini - conductor
Audio CD (May 27, 2008)
Код:
[b]CD1[/b]
EAC extraction logfile from 17. October 2008, 11:59 for CD
Junge Kantorei, Frankfurt Baroque Orchestra / George Frideric Handel - Hercules, CD 1of3
Used drive : HL-DT-STDVDRAM GSA-H62N Adapter: 2 ID: 1
Read mode : Secure with NO C2, accurate stream, disable cache
Read offset correction : 667
Overread into Lead-In and Lead-Out : No
Used output format : C:\Program Files\FLAC\flac.exe (User Defined Encoder)
320 kBit/s
Additional command line options : -8 -V -T "ARTIST=%a" -T "TITLE=%t" -T "ALBUM=%g" -T "DATE=%y" -T "TRACKNUMBER=%n" -T "GENRE=%m" -T "COMMENT=EAC FLAC -8" %s
Other options :
Fill up missing offset samples with silence : Yes
Delete leading and trailing silent blocks : No
Native Win32 interface for Win NT & 2000
Track 1
Filename G:\Z\George Frideric Handel - Hercules (2008) [FLAC] (3 CDs)\Disc 1of3\01 - Act I - Overture.wav
Pre-gap length 0:00:02.00
Peak level 18.1 %
Track quality 100.0 %
Test CRC 3760A549
Copy CRC 3760A549
Copy OK
Track 2
Filename G:\Z\George Frideric Handel - Hercules (2008) [FLAC] (3 CDs)\Disc 1of3\02 - Act I - Menuetto.wav
Peak level 13.5 %
Track quality 100.0 %
Test CRC ED5D4E3F
Copy CRC ED5D4E3F
Copy OK
Track 3
Filename G:\Z\George Frideric Handel - Hercules (2008) [FLAC] (3 CDs)\Disc 1of3\03 - Act I - Accompagnato - See, with what sad dejection.wav
Peak level 33.4 %
Track quality 100.0 %
Test CRC A173C073
Copy CRC A173C073
Copy OK
Track 4
Filename G:\Z\George Frideric Handel - Hercules (2008) [FLAC] (3 CDs)\Disc 1of3\04 - Act I - Aria - No longer, fate, relentless frown.wav
Peak level 46.8 %
Track quality 100.0 %
Test CRC 911A5D8D
Copy CRC 911A5D8D
Copy OK
Track 5
Filename G:\Z\George Frideric Handel - Hercules (2008) [FLAC] (3 CDs)\Disc 1of3\05 - Act I - Accompagnato - O, Hercules, why art thou absent from me.wav
Peak level 34.8 %
Track quality 100.0 %
Test CRC 16E046C5
Copy CRC 16E046C5
Copy OK
Track 6
Filename G:\Z\George Frideric Handel - Hercules (2008) [FLAC] (3 CDs)\Disc 1of3\06 - Act I - Aria - The world, when day's career is run.wav
Peak level 38.4 %
Track quality 100.0 %
Test CRC C7B1C1EF
Copy CRC C7B1C1EF
Copy OK
Track 7
Filename G:\Z\George Frideric Handel - Hercules (2008) [FLAC] (3 CDs)\Disc 1of3\07 - Act I - Recitative - Princess. Be comforted, and hope the best.wav
Peak level 32.0 %
Track quality 99.8 %
Test CRC 8ADF459E
Copy CRC 8ADF459E
Copy OK
Track 8
Filename G:\Z\George Frideric Handel - Hercules (2008) [FLAC] (3 CDs)\Disc 1of3\08 - Act I - Arioso - I feel, I feel the god, he swells my breast.wav
Peak level 34.2 %
Track quality 100.0 %
Test CRC 8DA767DA
Copy CRC 8DA767DA
Copy OK
Track 9
Filename G:\Z\George Frideric Handel - Hercules (2008) [FLAC] (3 CDs)\Disc 1of3\09 - Act I - Recitative - He said the sacred fury left his breast.wav
Peak level 33.4 %
Track quality 100.0 %
Test CRC 31AB1C88
Copy CRC 31AB1C88
Copy OK
Track 10
Filename G:\Z\George Frideric Handel - Hercules (2008) [FLAC] (3 CDs)\Disc 1of3\10 - Act I - Aria - There, in myrtle shades reclin'd.wav
Peak level 48.7 %
Track quality 99.9 %
Test CRC AF795729
Copy CRC AF795729
Copy OK
Track 11
Filename G:\Z\George Frideric Handel - Hercules (2008) [FLAC] (3 CDs)\Disc 1of3\11 - Act I - Recitative - Despair not, but let rising hope suspend.wav
Peak level 28.2 %
Track quality 100.0 %
Test CRC 0B9B899F
Copy CRC 0B9B899F
Copy OK
Track 12
Filename G:\Z\George Frideric Handel - Hercules (2008) [FLAC] (3 CDs)\Disc 1of3\12 - Act I - Aria - Where congeal'd the northern streams.wav
Peak level 48.1 %
Track quality 100.0 %
Test CRC BB9A29D6
Copy CRC BB9A29D6
Copy OK
Track 13
Filename G:\Z\George Frideric Handel - Hercules (2008) [FLAC] (3 CDs)\Disc 1of3\13 - Act I - O filial piety, O gen'rous love.wav
Peak level 76.1 %
Track quality 100.0 %
Test CRC BBD78A18
Copy CRC BBD78A18
Copy OK
Track 14
Filename G:\Z\George Frideric Handel - Hercules (2008) [FLAC] (3 CDs)\Disc 1of3\14 - Act I - Recitative - Banish your fears. The noble Hercules lives.wav
Peak level 51.1 %
Track quality 100.0 %
Test CRC A2085C1B
Copy CRC A2085C1B
Copy OK
Track 15
Filename G:\Z\George Frideric Handel - Hercules (2008) [FLAC] (3 CDs)\Disc 1of3\15 - Act I - Aria - Begone, my fears, fly hence, away.wav
Peak level 63.5 %
Track quality 99.9 %
Test CRC 60173D12
Copy CRC 60173D12
Copy OK
Track 16
Filename G:\Z\George Frideric Handel - Hercules (2008) [FLAC] (3 CDs)\Disc 1of3\16 - Act I - Recitative - A train of captives, red with honest wounds.wav
Peak level 30.2 %
Track quality 100.0 %
Test CRC 1FDD0832
Copy CRC 1FDD0832
Copy OK
Track 17
Filename G:\Z\George Frideric Handel - Hercules (2008) [FLAC] (3 CDs)\Disc 1of3\17 - Act I - Aria - The smiling hours of joyful train.wav
Peak level 47.4 %
Track quality 100.0 %
Test CRC 452470E3
Copy CRC 452470E3
Copy OK
Track 18
Filename G:\Z\George Frideric Handel - Hercules (2008) [FLAC] (3 CDs)\Disc 1of3\18 - Act I - Let none despair, relief may come though late.wav
Peak level 62.2 %
Track quality 100.0 %
Test CRC D13E6400
Copy CRC D13E6400
Copy OK
Track 19
Filename G:\Z\George Frideric Handel - Hercules (2008) [FLAC] (3 CDs)\Disc 1of3\19 - Act I - Recitative - Ye faithful followers of the wretched Iole.wav
Peak level 40.9 %
Track quality 100.0 %
Test CRC 23407FB4
Copy CRC 23407FB4
Copy OK
Track 20
Filename G:\Z\George Frideric Handel - Hercules (2008) [FLAC] (3 CDs)\Disc 1of3\20 - Act I - Aria - Daughter of Gods, bright liberty.wav
Peak level 73.0 %
Track quality 100.0 %
Test CRC 26923326
Copy CRC 26923326
Copy OK
Track 21
Filename G:\Z\George Frideric Handel - Hercules (2008) [FLAC] (3 CDs)\Disc 1of3\21 - Act I - Recitative - But hark. The victor comes.wav
Peak level 59.3 %
Track quality 98.5 %
Test CRC C13133F4
Copy CRC C13133F4
Copy OK
Track 22
Filename G:\Z\George Frideric Handel - Hercules (2008) [FLAC] (3 CDs)\Disc 1of3\22 - Act I - March.wav
Peak level 85.4 %
Track quality 100.0 %
Test CRC 54006FDB
Copy CRC 54006FDB
Copy OK
Track 23
Filename G:\Z\George Frideric Handel - Hercules (2008) [FLAC] (3 CDs)\Disc 1of3\23 - Act I - Recitative - Thanks to the pow'rs above.wav
Peak level 36.5 %
Track quality 99.8 %
Test CRC B93A4F0C
Copy CRC B93A4F0C
Copy OK
Track 24
Filename G:\Z\George Frideric Handel - Hercules (2008) [FLAC] (3 CDs)\Disc 1of3\24 - Act I - Aria - My father. Ah, methinks I see.wav
Peak level 49.4 %
Track quality 100.0 %
Test CRC C3A6C5E9
Copy CRC C3A6C5E9
Copy OK
Track 25
Filename G:\Z\George Frideric Handel - Hercules (2008) [FLAC] (3 CDs)\Disc 1of3\25 - Act I - Recitative - Now farewell, arms. From hence, the tide of time.wav
Peak level 19.6 %
Track quality 100.0 %
Test CRC 6308E8A2
Copy CRC 6308E8A2
Copy OK
Track 26
Filename G:\Z\George Frideric Handel - Hercules (2008) [FLAC] (3 CDs)\Disc 1of3\26 - Act I - Aria - The God of battle quits the bloody field.wav
Peak level 44.2 %
Track quality 99.9 %
Test CRC 610A8A30
Copy CRC 610A8A30
Copy OK
Track 27
Filename G:\Z\George Frideric Handel - Hercules (2008) [FLAC] (3 CDs)\Disc 1of3\27 - Act I - Crown with festal pomp the day.wav
Peak level 100.0 %
Track quality 100.0 %
Test CRC 1BCFAE9F
Copy CRC 1BCFAE9F
Copy OK
No errors occured
End of status report
Код:
[b]CD2[/b]
EAC extraction logfile from 17. October 2008, 12:55 for CD
Junge Kantorei, Frankfurt Baroque Orchestra / George Frideric Handel - Hercules, CD 2of3
Used drive : HL-DT-STDVDRAM GSA-H62N Adapter: 2 ID: 1
Read mode : Secure with NO C2, accurate stream, disable cache
Read offset correction : 667
Overread into Lead-In and Lead-Out : No
Used output format : C:\Program Files\FLAC\flac.exe (User Defined Encoder)
320 kBit/s
Additional command line options : -8 -V -T "ARTIST=%a" -T "TITLE=%t" -T "ALBUM=%g" -T "DATE=%y" -T "TRACKNUMBER=%n" -T "GENRE=%m" -T "COMMENT=EAC FLAC -8" %s
Other options :
Fill up missing offset samples with silence : Yes
Delete leading and trailing silent blocks : No
Native Win32 interface for Win NT & 2000
Track 1
Filename G:\Z\George Frideric Handel - Hercules (2008) [FLAC] (3 CDs)\Disc 2of3\01 - Act II - Sinfonia.wav
Pre-gap length 0:00:02.00
Peak level 15.9 %
Track quality 100.0 %
Test CRC D5C0365E
Copy CRC D5C0365E
Copy OK
Track 2
Filename G:\Z\George Frideric Handel - Hercules (2008) [FLAC] (3 CDs)\Disc 2of3\02 - Act II - Recitative - Why was I born a princess, rais'd on high.wav
Peak level 28.3 %
Track quality 100.0 %
Test CRC 96B3808F
Copy CRC 96B3808F
Copy OK
Track 3
Filename G:\Z\George Frideric Handel - Hercules (2008) [FLAC] (3 CDs)\Disc 2of3\03 - Act II - Aria - How blest the maid ordained to dwell.wav
Peak level 51.4 %
Track quality 100.0 %
Test CRC 46DC021C
Copy CRC 46DC021C
Copy OK
Track 4
Filename G:\Z\George Frideric Handel - Hercules (2008) [FLAC] (3 CDs)\Disc 2of3\04 - Act II - Recitative - It must be so! Fame speaks aloud my wrongs.wav
Peak level 64.7 %
Track quality 100.0 %
Test CRC 85A27CBF
Copy CRC 85A27CBF
Copy OK
Track 5
Filename G:\Z\George Frideric Handel - Hercules (2008) [FLAC] (3 CDs)\Disc 2of3\05 - Act II - Aria - When beauty sorrow's liv'ry wears.wav
Peak level 50.6 %
Track quality 100.0 %
Test CRC 12A418DF
Copy CRC 12A418DF
Copy OK
Track 6
Filename G:\Z\George Frideric Handel - Hercules (2008) [FLAC] (3 CDs)\Disc 2of3\06 - Act II - Recitative - Whence this unjust suspicion.wav
Peak level 33.9 %
Track quality 100.0 %
Test CRC EAA2054A
Copy CRC EAA2054A
Copy OK
Track 7
Filename G:\Z\George Frideric Handel - Hercules (2008) [FLAC] (3 CDs)\Disc 2of3\07 - Act II - Ah, think what ills the jealous prove.wav
Peak level 81.2 %
Track quality 100.0 %
Test CRC A437D377
Copy CRC A437D377
Copy OK
Track 8
Filename G:\Z\George Frideric Handel - Hercules (2008) [FLAC] (3 CDs)\Disc 2of3\08 - Act II - Recitative - It is too sure that Hercules is false.wav
Peak level 32.7 %
Track quality 100.0 %
Test CRC 85853AC9
Copy CRC 85853AC9
Copy OK
Track 9
Filename G:\Z\George Frideric Handel - Hercules (2008) [FLAC] (3 CDs)\Disc 2of3\09 - Act II - Recitative - My godlike master.wav
Peak level 28.8 %
Track quality 99.3 %
Test CRC 1D2DD41E
Copy CRC 1D2DD41E
Copy OK
Track 10
Filename G:\Z\George Frideric Handel - Hercules (2008) [FLAC] (3 CDs)\Disc 2of3\10 - Act II - Aria - As stars, that rise and disappear.wav
Peak level 49.2 %
Track quality 100.0 %
Test CRC B6F796F6
Copy CRC B6F796F6
Copy OK
Track 11
Filename G:\Z\George Frideric Handel - Hercules (2008) [FLAC] (3 CDs)\Disc 2of3\11 - Act II - Recitative - In vain you strive his falsehood to disguise.wav
Peak level 29.0 %
Track quality 100.0 %
Test CRC 72557FAB
Copy CRC 72557FAB
Copy OK
Track 12
Filename G:\Z\George Frideric Handel - Hercules (2008) [FLAC] (3 CDs)\Disc 2of3\12 - Act II - Jealousy. Infernal pest.wav
Peak level 66.9 %
Track quality 99.9 %
Test CRC 04636331
Copy CRC 04636331
Copy OK
Track 13
Filename G:\Z\George Frideric Handel - Hercules (2008) [FLAC] (3 CDs)\Disc 2of3\13 - Act II - Recitative - She knows my passion, and has heard me breathe.wav
Peak level 51.1 %
Track quality 100.0 %
Test CRC 8E4053CE
Copy CRC 8E4053CE
Copy OK
Track 14
Filename G:\Z\George Frideric Handel - Hercules (2008) [FLAC] (3 CDs)\Disc 2of3\14 - Act II - Aria - Banish love from thy breast.wav
Peak level 51.2 %
Track quality 99.9 %
Test CRC 04D355E5
Copy CRC 04D355E5
Copy OK
Track 15
Filename G:\Z\George Frideric Handel - Hercules (2008) [FLAC] (3 CDs)\Disc 2of3\15 - Act II - Recitative - Forgive a passion, which resistless sways.wav
Peak level 15.9 %
Track quality 100.0 %
Test CRC C0BCD5BA
Copy CRC C0BCD5BA
Copy OK
Track 16
Filename G:\Z\George Frideric Handel - Hercules (2008) [FLAC] (3 CDs)\Disc 2of3\16 - Act II - Aria - From celestial seats descending.wav
Peak level 29.8 %
Track quality 99.9 %
Test CRC 784AAF98
Copy CRC 784AAF98
Copy OK
Track 17
Filename G:\Z\George Frideric Handel - Hercules (2008) [FLAC] (3 CDs)\Disc 2of3\17 - Act II - Wanton god of amorous fires.wav
Peak level 60.5 %
Track quality 100.0 %
Test CRC 6F2460B0
Copy CRC 6F2460B0
Copy OK
Track 18
Filename G:\Z\George Frideric Handel - Hercules (2008) [FLAC] (3 CDs)\Disc 2of3\18 - Act II - Recitative - Yes, I congratulate your titles.wav
Peak level 42.3 %
Track quality 100.0 %
Test CRC 4C8FF866
Copy CRC 4C8FF866
Copy OK
Track 19
Filename G:\Z\George Frideric Handel - Hercules (2008) [FLAC] (3 CDs)\Disc 2of3\19 - Act II - Aria - Alcides' name in latest story.wav
Peak level 45.0 %
Track quality 100.0 %
Test CRC D93D739F
Copy CRC D93D739F
Copy OK
Track 20
Filename G:\Z\George Frideric Handel - Hercules (2008) [FLAC] (3 CDs)\Disc 2of3\20 - Act II - Recitative - O, glorious pattern of heroic deeds.wav
Peak level 24.5 %
Track quality 100.0 %
Test CRC 065AB371
Copy CRC 065AB371
Copy OK
Track 21
Filename G:\Z\George Frideric Handel - Hercules (2008) [FLAC] (3 CDs)\Disc 2of3\21 - Act II - Aria - Resign thy club and lion's spoils.wav
Peak level 47.6 %
Track quality 100.0 %
Test CRC C20AB121
Copy CRC C20AB121
Copy OK
Track 22
Filename G:\Z\George Frideric Handel - Hercules (2008) [FLAC] (3 CDs)\Disc 2of3\22 - Act II - Recitative - You are deceived.wav
Peak level 36.7 %
Track quality 100.0 %
Test CRC B63A6CE0
Copy CRC B63A6CE0
Copy OK
Track 23
Filename G:\Z\George Frideric Handel - Hercules (2008) [FLAC] (3 CDs)\Disc 2of3\23 - Act II - Aria - Cease, ruler of the day, to rise.wav
Peak level 47.8 %
Track quality 99.9 %
Test CRC A9B05E10
Copy CRC A9B05E10
Copy OK
Track 24
Filename G:\Z\George Frideric Handel - Hercules (2008) [FLAC] (3 CDs)\Disc 2of3\24 - Act II - Recitative - Some kinder pow'r inspire me to regain.wav
Peak level 42.3 %
Track quality 100.0 %
Test CRC 9E491FCE
Copy CRC 9E491FCE
Copy OK
Track 25
Filename G:\Z\George Frideric Handel - Hercules (2008) [FLAC] (3 CDs)\Disc 2of3\25 - Act II - Aria - Constant lovers never roving.wav
Peak level 61.6 %
Track quality 100.0 %
Test CRC E453DB6C
Copy CRC E453DB6C
Copy OK
Track 26
Filename G:\Z\George Frideric Handel - Hercules (2008) [FLAC] (3 CDs)\Disc 2of3\26 - Act II - Recitative - But see, the princess Iole. Retire.wav
Peak level 36.8 %
Track quality 100.0 %
Test CRC C2AAC75F
Copy CRC C2AAC75F
Copy OK
Track 27
Filename G:\Z\George Frideric Handel - Hercules (2008) [FLAC] (3 CDs)\Disc 2of3\27 - Act II - Aria - Still caressing and caress'd.wav
Peak level 67.4 %
Track quality 99.9 %
Test CRC F758CDCF
Copy CRC F758CDCF
Copy OK
Track 28
Filename G:\Z\George Frideric Handel - Hercules (2008) [FLAC] (3 CDs)\Disc 2of3\28 - Act II - Duet - Joys of freedom, joys of pow'r.wav
Peak level 46.6 %
Track quality 99.9 %
Test CRC 65132D00
Copy CRC 65132D00
Copy OK
Track 29
Filename G:\Z\George Frideric Handel - Hercules (2008) [FLAC] (3 CDs)\Disc 2of3\29 - Act II - Recitative - Father of Hercules, great Jove, oh help.wav
Peak level 17.6 %
Track quality 100.0 %
Test CRC 4BBF4FA2
Copy CRC 4BBF4FA2
Copy OK
Track 30
Filename G:\Z\George Frideric Handel - Hercules (2008) [FLAC] (3 CDs)\Disc 2of3\30 - Act II - Love and Hymen, hand in hand.wav
Peak level 67.5 %
Track quality 100.0 %
Test CRC 9CFB6FCA
Copy CRC 9CFB6FCA
Copy OK
No errors occured
End of status report
Код:
[b]CD3[/b]
EAC extraction logfile from 17. October 2008, 13:23 for CD
Junge Kantorei, Frankfurt Baroque Orchestra / George Frideric Handel - Hercules, CD 3of3
Used drive : HL-DT-STDVDRAM GSA-H62N Adapter: 2 ID: 1
Read mode : Secure with NO C2, accurate stream, disable cache
Read offset correction : 667
Overread into Lead-In and Lead-Out : No
Used output format : C:\Program Files\FLAC\flac.exe (User Defined Encoder)
320 kBit/s
Additional command line options : -8 -V -T "ARTIST=%a" -T "TITLE=%t" -T "ALBUM=%g" -T "DATE=%y" -T "TRACKNUMBER=%n" -T "GENRE=%m" -T "COMMENT=EAC FLAC -8" %s
Other options :
Fill up missing offset samples with silence : Yes
Delete leading and trailing silent blocks : No
Native Win32 interface for Win NT & 2000
Track 1
Filename G:\Z\George Frideric Handel - Hercules (2008) [FLAC] (3 CDs)\Disc 3of3\01 - Act III - Sinfonia.wav
Pre-gap length 0:00:02.00
Peak level 16.2 %
Track quality 100.0 %
Test CRC B8E143DE
Copy CRC B8E143DE
Copy OK
Track 2
Filename G:\Z\George Frideric Handel - Hercules (2008) [FLAC] (3 CDs)\Disc 3of3\02 - Act III - Recitative - Ye sons of Trachin, mourn your valiant chief.wav
Peak level 26.4 %
Track quality 100.0 %
Test CRC AC380C07
Copy CRC AC380C07
Copy OK
Track 3
Filename G:\Z\George Frideric Handel - Hercules (2008) [FLAC] (3 CDs)\Disc 3of3\03 - Act III - Aria - O scene of unexampled woe.wav
Peak level 38.5 %
Track quality 100.0 %
Test CRC 97391847
Copy CRC 97391847
Copy OK
Track 4
Filename G:\Z\George Frideric Handel - Hercules (2008) [FLAC] (3 CDs)\Disc 3of3\04 - Act III - Recitative - O fatal jealousy.wav
Peak level 14.2 %
Track quality 100.0 %
Test CRC 9CF208FB
Copy CRC 9CF208FB
Copy OK
Track 5
Filename G:\Z\George Frideric Handel - Hercules (2008) [FLAC] (3 CDs)\Disc 3of3\05 - Act III - Tyrants now no more shall dread.wav
Peak level 82.0 %
Track quality 99.9 %
Test CRC A0002ECE
Copy CRC A0002ECE
Copy OK
Track 6
Filename G:\Z\George Frideric Handel - Hercules (2008) [FLAC] (3 CDs)\Disc 3of3\06 - Act III - Aria - O Jove, what land is this, what clime accurst.wav
Peak level 51.5 %
Track quality 100.0 %
Test CRC 80F96CE9
Copy CRC 80F96CE9
Copy OK
Track 7
Filename G:\Z\George Frideric Handel - Hercules (2008) [FLAC] (3 CDs)\Disc 3of3\07 - Act III - Recitative - Great Jove, relieve his pains.wav
Peak level 24.6 %
Track quality 100.0 %
Test CRC EEBED9FA
Copy CRC EEBED9FA
Copy OK
Track 8
Filename G:\Z\George Frideric Handel - Hercules (2008) [FLAC] (3 CDs)\Disc 3of3\08 - Act III - Accompagnato - Was it for this unnumber'd toils I bore.wav
Peak level 38.9 %
Track quality 100.0 %
Test CRC C724BAD0
Copy CRC C724BAD0
Copy OK
Track 9
Filename G:\Z\George Frideric Handel - Hercules (2008) [FLAC] (3 CDs)\Disc 3of3\09 - Act III - Aria - Let not fame the tidings spread.wav
Peak level 57.2 %
Track quality 100.0 %
Test CRC F6AC165D
Copy CRC F6AC165D
Copy OK
Track 10
Filename G:\Z\George Frideric Handel - Hercules (2008) [FLAC] (3 CDs)\Disc 3of3\10 - Act III - Accompagnato - Where shall I fly. Where hide this guilty head.wav
Peak level 91.7 %
Track quality 100.0 %
Test CRC 1D3E4E38
Copy CRC 1D3E4E38
Copy OK
Track 11
Filename G:\Z\George Frideric Handel - Hercules (2008) [FLAC] (3 CDs)\Disc 3of3\11 - Act III - Recitative - Lo. The fair fatal cause of all this ruin.wav
Peak level 41.9 %
Track quality 100.0 %
Test CRC A1753272
Copy CRC A1753272
Copy OK
Track 12
Filename G:\Z\George Frideric Handel - Hercules (2008) [FLAC] (3 CDs)\Disc 3of3\12 - Act III - Aria - My breast with tender pity swells.wav
Peak level 51.1 %
Track quality 100.0 %
Test CRC 638FABC9
Copy CRC 638FABC9
Copy OK
Track 13
Filename G:\Z\George Frideric Handel - Hercules (2008) [FLAC] (3 CDs)\Disc 3of3\13 - Act III - Recitative-Accompagnato - Princess, rejoice.wav
Peak level 45.0 %
Track quality 100.0 %
Test CRC 513AA1BC
Copy CRC 513AA1BC
Copy OK
Track 14
Filename G:\Z\George Frideric Handel - Hercules (2008) [FLAC] (3 CDs)\Disc 3of3\14 - Act III - Aria - He, who for Atlas prop'd the sky.wav
Peak level 29.0 %
Track quality 100.0 %
Test CRC 655DCB57
Copy CRC 655DCB57
Copy OK
Track 15
Filename G:\Z\George Frideric Handel - Hercules (2008) [FLAC] (3 CDs)\Disc 3of3\15 - Act III - Recitative-Accompagnato - Words are too faint to speak.wav
Peak level 37.4 %
Track quality 100.0 %
Test CRC FE81166A
Copy CRC FE81166A
Copy OK
Track 16
Filename G:\Z\George Frideric Handel - Hercules (2008) [FLAC] (3 CDs)\Disc 3of3\16 - Act III - Recitative - How blest is Hyllus, if the lovely Iole.wav
Peak level 32.8 %
Track quality 100.0 %
Test CRC 3AE4DE7B
Copy CRC 3AE4DE7B
Copy OK
Track 17
Filename G:\Z\George Frideric Handel - Hercules (2008) [FLAC] (3 CDs)\Disc 3of3\17 - Act III - Duet - Oh prince, whose virtues all admire.wav
Peak level 55.1 %
Track quality 100.0 %
Test CRC 12896A36
Copy CRC 12896A36
Copy OK
Track 18
Filename G:\Z\George Frideric Handel - Hercules (2008) [FLAC] (3 CDs)\Disc 3of3\18 - Act III - Recitative - Ye sons of freedom, now, in every clime.wav
Peak level 24.9 %
Track quality 99.4 %
Test CRC 1932F472
Copy CRC 1932F472
Copy OK
Track 19
Filename G:\Z\George Frideric Handel - Hercules (2008) [FLAC] (3 CDs)\Disc 3of3\19 - Act III - To him your grateful notes of praise belong.wav
Peak level 55.7 %
Track quality 100.0 %
Test CRC 26D18EA6
Copy CRC 26D18EA6
Copy OK
No errors occured
End of status report
Код:
[b]CD1[/b]
REM GENRE Classical
REM DATE 2008
REM DISCID 9410471B
REM COMMENT "ExactAudioCopy v0.95b3"
PERFORMER "Junge Kantorei, Frankfurt Baroque Orchestra"
TITLE "George Frideric Handel - Hercules, CD 1of3"
FILE "01 - Act I - Overture.wav" WAVE
TRACK 01 AUDIO
TITLE "Act I - Overture"
PERFORMER "Junge Kantorei, Frankfurt Baroque Orchestra"
INDEX 01 00:00:00
FILE "02 - Act I - Menuetto.wav" WAVE
TRACK 02 AUDIO
TITLE "Act I - Menuetto"
PERFORMER "Junge Kantorei, Frankfurt Baroque Orchestra"
INDEX 01 00:00:00
FILE "03 - Act I - Accompagnato - See, with what sad dejection.wav" WAVE
TRACK 03 AUDIO
TITLE "Act I - Accompagnato - See, with what sad dejection"
PERFORMER "Junge Kantorei, Frankfurt Baroque Orchestra"
INDEX 01 00:00:00
FILE "04 - Act I - Aria - No longer, fate, relentless frown.wav" WAVE
TRACK 04 AUDIO
TITLE "Act I - Aria - No longer, fate, relentless frown"
PERFORMER "Junge Kantorei, Frankfurt Baroque Orchestra"
INDEX 01 00:00:00
FILE "05 - Act I - Accompagnato - O, Hercules, why art thou absent from me.wav" WAVE
TRACK 05 AUDIO
TITLE "Act I - Accompagnato - O, Hercules, why art thou absent from me"
PERFORMER "Junge Kantorei, Frankfurt Baroque Orchestra"
INDEX 01 00:00:00
FILE "06 - Act I - Aria - The world, when day's career is run.wav" WAVE
TRACK 06 AUDIO
TITLE "Act I - Aria - The world, when day's career is run"
PERFORMER "Junge Kantorei, Frankfurt Baroque Orchestra"
INDEX 01 00:00:00
FILE "07 - Act I - Recitative - Princess. Be comforted, and hope the best.wav" WAVE
TRACK 07 AUDIO
TITLE "Act I - Recitative - Princess. Be comforted, and hope the best"
PERFORMER "Junge Kantorei, Frankfurt Baroque Orchestra"
INDEX 01 00:00:00
FILE "08 - Act I - Arioso - I feel, I feel the god, he swells my breast.wav" WAVE
TRACK 08 AUDIO
TITLE "Act I - Arioso - I feel, I feel the god, he swells my breast"
PERFORMER "Junge Kantorei, Frankfurt Baroque Orchestra"
INDEX 01 00:00:00
FILE "09 - Act I - Recitative - He said the sacred fury left his breast.wav" WAVE
TRACK 09 AUDIO
TITLE "Act I - Recitative - He said the sacred fury left his breast"
PERFORMER "Junge Kantorei, Frankfurt Baroque Orchestra"
INDEX 01 00:00:00
FILE "10 - Act I - Aria - There, in myrtle shades reclin'd.wav" WAVE
TRACK 10 AUDIO
TITLE "Act I - Aria - There, in myrtle shades reclin'd"
PERFORMER "Junge Kantorei, Frankfurt Baroque Orchestra"
INDEX 01 00:00:00
FILE "11 - Act I - Recitative - Despair not, but let rising hope suspend.wav" WAVE
TRACK 11 AUDIO
TITLE "Act I - Recitative - Despair not, but let rising hope suspend"
PERFORMER "Junge Kantorei, Frankfurt Baroque Orchestra"
INDEX 01 00:00:00
FILE "12 - Act I - Aria - Where congeal'd the northern streams.wav" WAVE
TRACK 12 AUDIO
TITLE "Act I - Aria - Where congeal'd the northern streams"
PERFORMER "Junge Kantorei, Frankfurt Baroque Orchestra"
INDEX 01 00:00:00
FILE "13 - Act I - O filial piety, O gen'rous love.wav" WAVE
TRACK 13 AUDIO
TITLE "Act I - O filial piety, O gen'rous love"
PERFORMER "Junge Kantorei, Frankfurt Baroque Orchestra"
INDEX 01 00:00:00
FILE "14 - Act I - Recitative - Banish your fears. The noble Hercules lives.wav" WAVE
TRACK 14 AUDIO
TITLE "Act I - Recitative - Banish your fears. The noble Hercules lives"
PERFORMER "Junge Kantorei, Frankfurt Baroque Orchestra"
INDEX 01 00:00:00
FILE "15 - Act I - Aria - Begone, my fears, fly hence, away.wav" WAVE
TRACK 15 AUDIO
TITLE "Act I - Aria - Begone, my fears, fly hence, away"
PERFORMER "Junge Kantorei, Frankfurt Baroque Orchestra"
INDEX 01 00:00:00
FILE "16 - Act I - Recitative - A train of captives, red with honest wounds.wav" WAVE
TRACK 16 AUDIO
TITLE "Act I - Recitative - A train of captives, red with honest wounds"
PERFORMER "Junge Kantorei, Frankfurt Baroque Orchestra"
INDEX 01 00:00:00
FILE "17 - Act I - Aria - The smiling hours of joyful train.wav" WAVE
TRACK 17 AUDIO
TITLE "Act I - Aria - The smiling hours of joyful train"
PERFORMER "Junge Kantorei, Frankfurt Baroque Orchestra"
INDEX 01 00:00:00
FILE "18 - Act I - Let none despair, relief may come though late.wav" WAVE
TRACK 18 AUDIO
TITLE "Act I - Let none despair, relief may come though late"
PERFORMER "Junge Kantorei, Frankfurt Baroque Orchestra"
INDEX 01 00:00:00
FILE "19 - Act I - Recitative - Ye faithful followers of the wretched Iole.wav" WAVE
TRACK 19 AUDIO
TITLE "Act I - Recitative - Ye faithful followers of the wretched Iole"
PERFORMER "Junge Kantorei, Frankfurt Baroque Orchestra"
INDEX 01 00:00:00
FILE "20 - Act I - Aria - Daughter of Gods, bright liberty.wav" WAVE
TRACK 20 AUDIO
TITLE "Act I - Aria - Daughter of Gods, bright liberty"
PERFORMER "Junge Kantorei, Frankfurt Baroque Orchestra"
INDEX 01 00:00:00
FILE "21 - Act I - Recitative - But hark. The victor comes.wav" WAVE
TRACK 21 AUDIO
TITLE "Act I - Recitative - But hark. The victor comes"
PERFORMER "Junge Kantorei, Frankfurt Baroque Orchestra"
INDEX 01 00:00:00
FILE "22 - Act I - March.wav" WAVE
TRACK 22 AUDIO
TITLE "Act I - March"
PERFORMER "Junge Kantorei, Frankfurt Baroque Orchestra"
INDEX 01 00:00:00
FILE "23 - Act I - Recitative - Thanks to the pow'rs above.wav" WAVE
TRACK 23 AUDIO
TITLE "Act I - Recitative - Thanks to the pow'rs above"
PERFORMER "Junge Kantorei, Frankfurt Baroque Orchestra"
INDEX 01 00:00:00
FILE "24 - Act I - Aria - My father. Ah, methinks I see.wav" WAVE
TRACK 24 AUDIO
TITLE "Act I - Aria - My father. Ah, methinks I see"
PERFORMER "Junge Kantorei, Frankfurt Baroque Orchestra"
INDEX 01 00:00:00
FILE "25 - Act I - Recitative - Now farewell, arms. From hence, the tide of time.wav" WAVE
TRACK 25 AUDIO
TITLE "Act I - Recitative - Now farewell, arms. From hence, the tide of time"
PERFORMER "Junge Kantorei, Frankfurt Baroque Orchestra"
INDEX 01 00:00:00
FILE "26 - Act I - Aria - The God of battle quits the bloody field.wav" WAVE
TRACK 26 AUDIO
TITLE "Act I - Aria - The God of battle quits the bloody field"
PERFORMER "Junge Kantorei, Frankfurt Baroque Orchestra"
INDEX 01 00:00:00
FILE "27 - Act I - Crown with festal pomp the day.wav" WAVE
TRACK 27 AUDIO
TITLE "Act I - Crown with festal pomp the day"
PERFORMER "Junge Kantorei, Frankfurt Baroque Orchestra"
INDEX 01 00:00:00
Код:
[b]CD2[/b]
REM GENRE Classical
REM DATE 2008
REM DISCID AE11301E
REM COMMENT "ExactAudioCopy v0.95b3"
PERFORMER "Junge Kantorei, Frankfurt Baroque Orchestra"
TITLE "George Frideric Handel - Hercules, CD 2of3"
FILE "01 - Act II - Sinfonia.wav" WAVE
TRACK 01 AUDIO
TITLE "Act II - Sinfonia"
PERFORMER "Junge Kantorei, Frankfurt Baroque Orchestra"
INDEX 01 00:00:00
FILE "02 - Act II - Recitative - Why was I born a princess, rais'd on high.wav" WAVE
TRACK 02 AUDIO
TITLE "Act II - Recitative - Why was I born a princess, rais'd on high"
PERFORMER "Junge Kantorei, Frankfurt Baroque Orchestra"
INDEX 01 00:00:00
FILE "03 - Act II - Aria - How blest the maid ordained to dwell.wav" WAVE
TRACK 03 AUDIO
TITLE "Act II - Aria - How blest the maid ordained to dwell"
PERFORMER "Junge Kantorei, Frankfurt Baroque Orchestra"
INDEX 01 00:00:00
FILE "04 - Act II - Recitative - It must be so! Fame speaks aloud my wrongs.wav" WAVE
TRACK 04 AUDIO
TITLE "Act II - Recitative - It must be so! Fame speaks aloud my wrongs"
PERFORMER "Junge Kantorei, Frankfurt Baroque Orchestra"
INDEX 01 00:00:00
FILE "05 - Act II - Aria - When beauty sorrow's liv'ry wears.wav" WAVE
TRACK 05 AUDIO
TITLE "Act II - Aria - When beauty sorrow's liv'ry wears"
PERFORMER "Junge Kantorei, Frankfurt Baroque Orchestra"
INDEX 01 00:00:00
FILE "06 - Act II - Recitative - Whence this unjust suspicion.wav" WAVE
TRACK 06 AUDIO
TITLE "Act II - Recitative - Whence this unjust suspicion"
PERFORMER "Junge Kantorei, Frankfurt Baroque Orchestra"
INDEX 01 00:00:00
FILE "07 - Act II - Ah, think what ills the jealous prove.wav" WAVE
TRACK 07 AUDIO
TITLE "Act II - Ah, think what ills the jealous prove"
PERFORMER "Junge Kantorei, Frankfurt Baroque Orchestra"
INDEX 01 00:00:00
FILE "08 - Act II - Recitative - It is too sure that Hercules is false.wav" WAVE
TRACK 08 AUDIO
TITLE "Act II - Recitative - It is too sure that Hercules is false"
PERFORMER "Junge Kantorei, Frankfurt Baroque Orchestra"
INDEX 01 00:00:00
FILE "09 - Act II - Recitative - My godlike master.wav" WAVE
TRACK 09 AUDIO
TITLE "Act II - Recitative - My godlike master"
PERFORMER "Junge Kantorei, Frankfurt Baroque Orchestra"
INDEX 01 00:00:00
FILE "10 - Act II - Aria - As stars, that rise and disappear.wav" WAVE
TRACK 10 AUDIO
TITLE "Act II - Aria - As stars, that rise and disappear"
PERFORMER "Junge Kantorei, Frankfurt Baroque Orchestra"
INDEX 01 00:00:00
FILE "11 - Act II - Recitative - In vain you strive his falsehood to disguise.wav" WAVE
TRACK 11 AUDIO
TITLE "Act II - Recitative - In vain you strive his falsehood to disguise"
PERFORMER "Junge Kantorei, Frankfurt Baroque Orchestra"
INDEX 01 00:00:00
FILE "12 - Act II - Jealousy. Infernal pest.wav" WAVE
TRACK 12 AUDIO
TITLE "Act II - Jealousy. Infernal pest"
PERFORMER "Junge Kantorei, Frankfurt Baroque Orchestra"
INDEX 01 00:00:00
FILE "13 - Act II - Recitative - She knows my passion, and has heard me breathe.wav" WAVE
TRACK 13 AUDIO
TITLE "Act II - Recitative - She knows my passion, and has heard me breathe"
PERFORMER "Junge Kantorei, Frankfurt Baroque Orchestra"
INDEX 01 00:00:00
FILE "14 - Act II - Aria - Banish love from thy breast.wav" WAVE
TRACK 14 AUDIO
TITLE "Act II - Aria - Banish love from thy breast"
PERFORMER "Junge Kantorei, Frankfurt Baroque Orchestra"
INDEX 01 00:00:00
FILE "15 - Act II - Recitative - Forgive a passion, which resistless sways.wav" WAVE
TRACK 15 AUDIO
TITLE "Act II - Recitative - Forgive a passion, which resistless sways"
PERFORMER "Junge Kantorei, Frankfurt Baroque Orchestra"
INDEX 01 00:00:00
FILE "16 - Act II - Aria - From celestial seats descending.wav" WAVE
TRACK 16 AUDIO
TITLE "Act II - Aria - From celestial seats descending"
PERFORMER "Junge Kantorei, Frankfurt Baroque Orchestra"
INDEX 01 00:00:00
FILE "17 - Act II - Wanton god of amorous fires.wav" WAVE
TRACK 17 AUDIO
TITLE "Act II - Wanton god of amorous fires"
PERFORMER "Junge Kantorei, Frankfurt Baroque Orchestra"
INDEX 01 00:00:00
FILE "18 - Act II - Recitative - Yes, I congratulate your titles.wav" WAVE
TRACK 18 AUDIO
TITLE "Act II - Recitative - Yes, I congratulate your titles"
PERFORMER "Junge Kantorei, Frankfurt Baroque Orchestra"
INDEX 01 00:00:00
FILE "19 - Act II - Aria - Alcides' name in latest story.wav" WAVE
TRACK 19 AUDIO
TITLE "Act II - Aria - Alcides' name in latest story"
PERFORMER "Junge Kantorei, Frankfurt Baroque Orchestra"
INDEX 01 00:00:00
FILE "20 - Act II - Recitative - O, glorious pattern of heroic deeds.wav" WAVE
TRACK 20 AUDIO
TITLE "Act II - Recitative - O, glorious pattern of heroic deeds"
PERFORMER "Junge Kantorei, Frankfurt Baroque Orchestra"
INDEX 01 00:00:00
FILE "21 - Act II - Aria - Resign thy club and lion's spoils.wav" WAVE
TRACK 21 AUDIO
TITLE "Act II - Aria - Resign thy club and lion's spoils"
PERFORMER "Junge Kantorei, Frankfurt Baroque Orchestra"
INDEX 01 00:00:00
FILE "22 - Act II - Recitative - You are deceived.wav" WAVE
TRACK 22 AUDIO
TITLE "Act II - Recitative - You are deceived"
PERFORMER "Junge Kantorei, Frankfurt Baroque Orchestra"
INDEX 01 00:00:00
FILE "23 - Act II - Aria - Cease, ruler of the day, to rise.wav" WAVE
TRACK 23 AUDIO
TITLE "Act II - Aria - Cease, ruler of the day, to rise"
PERFORMER "Junge Kantorei, Frankfurt Baroque Orchestra"
INDEX 01 00:00:00
FILE "24 - Act II - Recitative - Some kinder pow'r inspire me to regain.wav" WAVE
TRACK 24 AUDIO
TITLE "Act II - Recitative - Some kinder pow'r inspire me to regain"
PERFORMER "Junge Kantorei, Frankfurt Baroque Orchestra"
INDEX 01 00:00:00
FILE "25 - Act II - Aria - Constant lovers never roving.wav" WAVE
TRACK 25 AUDIO
TITLE "Act II - Aria - Constant lovers never roving"
PERFORMER "Junge Kantorei, Frankfurt Baroque Orchestra"
INDEX 01 00:00:00
FILE "26 - Act II - Recitative - But see, the princess Iole. Retire.wav" WAVE
TRACK 26 AUDIO
TITLE "Act II - Recitative - But see, the princess Iole. Retire"
PERFORMER "Junge Kantorei, Frankfurt Baroque Orchestra"
INDEX 01 00:00:00
FILE "27 - Act II - Aria - Still caressing and caress'd.wav" WAVE
TRACK 27 AUDIO
TITLE "Act II - Aria - Still caressing and caress'd"
PERFORMER "Junge Kantorei, Frankfurt Baroque Orchestra"
INDEX 01 00:00:00
FILE "28 - Act II - Duet - Joys of freedom, joys of pow'r.wav" WAVE
TRACK 28 AUDIO
TITLE "Act II - Duet - Joys of freedom, joys of pow'r"
PERFORMER "Junge Kantorei, Frankfurt Baroque Orchestra"
INDEX 01 00:00:00
FILE "29 - Act II - Recitative - Father of Hercules, great Jove, oh help.wav" WAVE
TRACK 29 AUDIO
TITLE "Act II - Recitative - Father of Hercules, great Jove, oh help"
PERFORMER "Junge Kantorei, Frankfurt Baroque Orchestra"
INDEX 01 00:00:00
FILE "30 - Act II - Love and Hymen, hand in hand.wav" WAVE
TRACK 30 AUDIO
TITLE "Act II - Love and Hymen, hand in hand"
PERFORMER "Junge Kantorei, Frankfurt Baroque Orchestra"
INDEX 01 00:00:00
Код:
[b]CD3[/b]
REM GENRE Classical
REM DATE 2008
REM DISCID FC0B0013
REM COMMENT "ExactAudioCopy v0.95b3"
PERFORMER "Junge Kantorei, Frankfurt Baroque Orchestra"
TITLE "George Frideric Handel - Hercules, CD 3of3"
FILE "01 - Act III - Sinfonia.wav" WAVE
TRACK 01 AUDIO
TITLE "Act III - Sinfonia"
PERFORMER "Junge Kantorei, Frankfurt Baroque Orchestra"
INDEX 01 00:00:00
FILE "02 - Act III - Recitative - Ye sons of Trachin, mourn your valiant chief.wav" WAVE
TRACK 02 AUDIO
TITLE "Act III - Recitative - Ye sons of Trachin, mourn your valiant chief"
PERFORMER "Junge Kantorei, Frankfurt Baroque Orchestra"
INDEX 01 00:00:00
FILE "03 - Act III - Aria - O scene of unexampled woe.wav" WAVE
TRACK 03 AUDIO
TITLE "Act III - Aria - O scene of unexampled woe"
PERFORMER "Junge Kantorei, Frankfurt Baroque Orchestra"
INDEX 01 00:00:00
FILE "04 - Act III - Recitative - O fatal jealousy.wav" WAVE
TRACK 04 AUDIO
TITLE "Act III - Recitative - O fatal jealousy"
PERFORMER "Junge Kantorei, Frankfurt Baroque Orchestra"
INDEX 01 00:00:00
FILE "05 - Act III - Tyrants now no more shall dread.wav" WAVE
TRACK 05 AUDIO
TITLE "Act III - Tyrants now no more shall dread"
PERFORMER "Junge Kantorei, Frankfurt Baroque Orchestra"
INDEX 01 00:00:00
FILE "06 - Act III - Aria - O Jove, what land is this, what clime accurst.wav" WAVE
TRACK 06 AUDIO
TITLE "Act III - Aria - O Jove, what land is this, what clime accurst"
PERFORMER "Junge Kantorei, Frankfurt Baroque Orchestra"
INDEX 01 00:00:00
FILE "07 - Act III - Recitative - Great Jove, relieve his pains.wav" WAVE
TRACK 07 AUDIO
TITLE "Act III - Recitative - Great Jove, relieve his pains"
PERFORMER "Junge Kantorei, Frankfurt Baroque Orchestra"
INDEX 01 00:00:00
FILE "08 - Act III - Accompagnato - Was it for this unnumber'd toils I bore.wav" WAVE
TRACK 08 AUDIO
TITLE "Act III - Accompagnato - Was it for this unnumber'd toils I bore"
PERFORMER "Junge Kantorei, Frankfurt Baroque Orchestra"
INDEX 01 00:00:00
FILE "09 - Act III - Aria - Let not fame the tidings spread.wav" WAVE
TRACK 09 AUDIO
TITLE "Act III - Aria - Let not fame the tidings spread"
PERFORMER "Junge Kantorei, Frankfurt Baroque Orchestra"
INDEX 01 00:00:00
FILE "10 - Act III - Accompagnato - Where shall I fly. Where hide this guilty head.wav" WAVE
TRACK 10 AUDIO
TITLE "Act III - Accompagnato - Where shall I fly. Where hide this guilty head"
PERFORMER "Junge Kantorei, Frankfurt Baroque Orchestra"
INDEX 01 00:00:00
FILE "11 - Act III - Recitative - Lo. The fair fatal cause of all this ruin.wav" WAVE
TRACK 11 AUDIO
TITLE "Act III - Recitative - Lo. The fair fatal cause of all this ruin"
PERFORMER "Junge Kantorei, Frankfurt Baroque Orchestra"
INDEX 01 00:00:00
FILE "12 - Act III - Aria - My breast with tender pity swells.wav" WAVE
TRACK 12 AUDIO
TITLE "Act III - Aria - My breast with tender pity swells"
PERFORMER "Junge Kantorei, Frankfurt Baroque Orchestra"
INDEX 01 00:00:00
FILE "13 - Act III - Recitative-Accompagnato - Princess, rejoice.wav" WAVE
TRACK 13 AUDIO
TITLE "Act III - Recitative-Accompagnato - Princess, rejoice"
PERFORMER "Junge Kantorei, Frankfurt Baroque Orchestra"
INDEX 01 00:00:00
FILE "14 - Act III - Aria - He, who for Atlas prop'd the sky.wav" WAVE
TRACK 14 AUDIO
TITLE "Act III - Aria - He, who for Atlas prop'd the sky"
PERFORMER "Junge Kantorei, Frankfurt Baroque Orchestra"
INDEX 01 00:00:00
FILE "15 - Act III - Recitative-Accompagnato - Words are too faint to speak.wav" WAVE
TRACK 15 AUDIO
TITLE "Act III - Recitative-Accompagnato - Words are too faint to speak"
PERFORMER "Junge Kantorei, Frankfurt Baroque Orchestra"
INDEX 01 00:00:00
FILE "16 - Act III - Recitative - How blest is Hyllus, if the lovely Iole.wav" WAVE
TRACK 16 AUDIO
TITLE "Act III - Recitative - How blest is Hyllus, if the lovely Iole"
PERFORMER "Junge Kantorei, Frankfurt Baroque Orchestra"
INDEX 01 00:00:00
FILE "17 - Act III - Duet - Oh prince, whose virtues all admire.wav" WAVE
TRACK 17 AUDIO
TITLE "Act III - Duet - Oh prince, whose virtues all admire"
PERFORMER "Junge Kantorei, Frankfurt Baroque Orchestra"
INDEX 01 00:00:00
FILE "18 - Act III - Recitative - Ye sons of freedom, now, in every clime.wav" WAVE
TRACK 18 AUDIO
TITLE "Act III - Recitative - Ye sons of freedom, now, in every clime"
PERFORMER "Junge Kantorei, Frankfurt Baroque Orchestra"
INDEX 01 00:00:00
FILE "19 - Act III - To him your grateful notes of praise belong.wav" WAVE
TRACK 19 AUDIO
TITLE "Act III - To him your grateful notes of praise belong"
PERFORMER "Junge Kantorei, Frankfurt Baroque Orchestra"
INDEX 01 00:00:00


Скачать торрент 809.28 МБ


Download
Для скачивания .torrent файлов необходима регистрация
Сайт не распространяет и не хранит электронные версии произведений, а лишь предоставляет доступ к создаваемому пользователями каталогу ссылок на торрент-файлы, которые содержат только списки хеш-сумм

Страница 1 из 1

Ответить на тему

   Похожие торренты   Торрент 




cron