Регистрация ·  Логин: Пароль: Запомнить   · Забыли пароль?




Ответить на тему
Статистика раздачи
Размер: 360.16 МБ | Зарегистрирован: 10 мар 2018, 13:20 | .torrent скачан: 0 раз(а)
Сидеров: [ 3  | 0 байт/сек ]   Личеров: [ 1  | 0 байт/сек ]   DHT: [ 3 / 1 ]
Автор Сообщение

Модератор
Аватара пользователя

Стаж: 6 лет
Сообщения: 7870
Молдова

Сообщение 10 мар 2018, 13:20 

[Цитировать]

Marc-Antoine Charpentier - Tristes Deserts - Gerard Lesne, Il Seminario musicale

Жанр: Baroque / Vocal
Год выпуска диска: 2007
Производитель диска: Zig-Zag Territoires
Аудио кодек: FLAC
Тип рипа: image+.cue
Битрейт аудио: lossless
Продолжительность: 74'52"
Источник: собственный рип
Исполнители:
Gerard Lesne (haute-contre et direction)
Cyril Auvity (taille)
Edwin Crossley-Mercer (basse-taille)
Il Seminario Musicale
Blandine Rannou (clavecin et orgue)
Benjamin Perrot (theorbe)
Florence Bolton (basse de viole)
Helene Schmitt, Yannis Roger (violons)
Pierre Boragno, Marine Sablonnieres (flutes a bec)
Patrick Beuckels (flute allemande)
Chantal Santon (dessus)
Kaoli Isshiki (dessus)
Magid el Bushra (haute-contre)
(chour des anges)
Enregistre du 9 au 12 octobre 2006 a l'Abbaye de St Michel en Thierache
01. "Tristes deserts" (H.469) 3:25
02. "Sans frayeur dans ce bois (chaconne)..." (H.467) 3:02
03. "Non, non, je ne l'aime plus" (H.455) 4:55
04. "Amour vous avez beau..." (H.445) 2:00
05. "Rendez-moi mes plaisirs..." (H.463) 2:03
06. "Oiseaux de ces bocage..." (H.456) 2:08
07. "Quoi, je ne verrai plus..." (H.461) 3:34
08. Epitaphium Carpentarij (H.474) 16:20
09. Les Stances du Cid (H.457-59) 6:25
10. "Celle qui fait tout mon tourment..." (H.450) 2:15
11. "Aupres du feu, on fait l'amour..." (H.466) 1:28
12. "Veux-tu, compere Gregoire..." (H.470) 0:56
13. "Beaux petits yeux d'ecarlate..." (H.448) 2:21
14. "Ruisseau qui nourrit dans ce bois..." (H.466) 4:08
Orphee descendant aux enfers (H.471)
15. Prelude 19:41
16. Recit d'Orphee 2:04
17. Air d'Orphee "Effroyables enfers ou je conduis mes pas..." 6:01
18. "Quelle douce harmonie a frappe mon orielle..." 1:21
19. Air - Orphee "Vos plus grands criminels..." 3:34
20. "Ne cherchons plus d'ou vient cette tendresse..." / "Helas, Rien n'est egal au bonheur des amans..." 3:34
Код:
Exact Audio Copy V0.99 prebeta 5 from 4. May 2009
Отчёт EAC об извлечении, выполненном 8. марта 2010, 2:34
Marc-Antoine Charpentier / Tristes Dйserts
Дисковод: Optiarc DVD RW AD-7203S   Adapter: 1  ID: 0
Режим чтения                 : Достоверность
Использование точного потока : Да
Отключение кэша аудио        : Да
Использование указателей C2  : Нет
Коррекция смещения при чтении                     : 48
Способность читать области Lead-in и Lead-out     : Нет
Заполнение пропущенных сэмплов тишиной            : Да
Удаление блоков с тишиной в начале и конце        : Нет
При вычислениях CRC использовались нулевые сэмплы : Да
Интерфейс                                         : Установленный внешний ASPI-интерфейс
Выходной формат          : Пользовательский кодировщик
Выбранный битрейт        : 768 kBit/s
Качество                 : Высокий
Добавление ID3-тэга      : Нет
Утилита сжатия           : J:\prog\Exact Audio Copy\Flac\flac.exe
Дополнительные параметры : -8 -V -T "ARTIST=%a" -T "TITLE=%t" -T "ALBUM=%g" -T "DATE=%y" -T "TRACKNUMBER=%n" -T "GENRE=%m" -T "COMMENT=EAC FLAC -8" %s
TOC извлечённого CD
     Трек |   Старт  | Длительность | Начальный сектор | Конечный сектор
    ---------------------------------------------------------------------
       1  |  0:00.00 |    3:25.34   |           0      |      15408
       2  |  3:25.34 |    3:02.41   |       15409      |      29099
       3  |  6:28.00 |    4:55.54   |       29100      |      51278
       4  | 11:23.54 |    2:00.71   |       51279      |      60349
       5  | 13:24.50 |    2:03.59   |       60350      |      69633
       6  | 15:28.34 |    2:08.56   |       69634      |      79289
       7  | 17:37.15 |    3:34.34   |       79290      |      95373
       8  | 21:11.49 |   16:20.27   |       95374      |     168900
       9  | 37:32.01 |    6:25.69   |      168901      |     197844
      10  | 43:57.70 |    2:15.26   |      197845      |     207995
      11  | 46:13.21 |    1:28.48   |      207996      |     214643
      12  | 47:41.69 |    0:56.05   |      214644      |     218848
      13  | 48:37.74 |    2:21.70   |      218849      |     229493
      14  | 50:59.69 |    4:08.07   |      229494      |     248100
      15  | 55:08.01 |    3:07.60   |      248101      |     262185
      16  | 58:15.61 |    2:04.61   |      262186      |     271546
      17  | 60:20.47 |    6:01.39   |      271547      |     298660
      18  | 66:22.11 |    1:21.05   |      298661      |     304740
      19  | 67:43.16 |    3:34.17   |      304741      |     320807
      20  | 71:17.33 |    3:34.55   |      320808      |     336912
Характеристики диапазона извлечения и сообщения об ошибках
Выбранный диапазон
     Имя файла K:\@Results\Marc-Antoine Charpentier - Tristes Dйserts.wav
     Пиковый уровень 96.1 %
     Качество диапазона 99.9 %
     CRC копии A0FD7171
     Копирование... OK
Ошибок не произошло
Конец отчёта


Скачать торрент 360.16 МБ


Download
Для скачивания .torrent файлов необходима регистрация
Сайт не распространяет и не хранит электронные версии произведений, а лишь предоставляет доступ к создаваемому пользователями каталогу ссылок на торрент-файлы, которые содержат только списки хеш-сумм

Страница 1 из 1

Ответить на тему

   Похожие торренты   Торрент 




cron