Регистрация ·  Логин: Пароль: Запомнить   · Забыли пароль?




Ответить на тему
Статистика раздачи
Размер: 268.75 МБ | Зарегистрирован: 10 мар 2018, 13:20 | .torrent скачан: 0 раз(а)
Сидеров: [ 1  | 0 байт/сек ]   Личеров: [ 0  | 0 байт/сек ]   DHT: [ 1 / 0 ]
Автор Сообщение

Модератор
Аватара пользователя

Стаж: 6 лет
Сообщения: 7870
Молдова

Сообщение 10 мар 2018, 13:20 

[Цитировать]

Новая Опера в Карнеги Холле ("Novaya Opera" in Carnegie Hall)

Жанр: Vocal, Orchestral
Год выпуска диска: 1995
Производитель диска: Россия, АГЕНСТВО МОДЕСТЪ
Аудио кодек: FLAC
Тип рипа: image+.cue
Битрейт аудио: lossless
Продолжительность: 1:04:44
Источник: Собственный рип
Треклист:
01 А.ХАЧАТУРЯН - Адажио Спартака и Фригии из балета "Спартак"
02 Дж.РОССИНИ - "Agnus Dei". Оркестровка Е. Колобова
03 Г.ПЕРСЕЛЛ - Речитатив и ария Дидоны
04 Т.АЛЬБИНОНИ - Адажио
05 Фр.ШУБЕРТ - Ave Maria. Оркестровка Е.Колобова
06 X.ГЛЮК - Мелодия. Оркестровка Е.Колобова
07 Дж.КАЧЧИНИ - Ave Maria. Оркестровка Е.Колобова
08 Дж.РОССИНИ - Stabat Mater
09 А.ХАЧАТУРЯН - Вальс из музыки к драме М.Ю.Лермонтова "Маскарад"
10 А.ХАЧАТУРЯН - Реквием из балета "Спартак"
Доп. информация:
Оркестр и хор Московского муниципального театра "Новая Опера"
Художественный руководитель и главный дирижер Евгений КОЛОБОВ.
Хормейстеры Наталья ПОПОВИЧ и Сергей ЛЫСЕНКО.
Солисты:
Маргарита НЕКРАСОВА, меццо-сопрано (2,3,5,6,7)
Галина ЛЕБЕДЕВА, сопрано (8)
Елена СВЕЧНИКОВА, меццо-сопрано (8)
Марат ГАРЕЕВ, тенор (8)
Тигран МАРТИРОСЯН, бас (8)
Анна РАХМАН, фортепиано (2,5)
Юрий ЧЕРНЯВСКИЙ, скрипка (4)
Олег СИДЕЛЬНИКОВ, орган (4)
Exact Audio Copy V0.99 prebeta 5 from 4. May 2009
Отчёт EAC об извлечении, выполненном 22. августа 2010, 12:45
Various / Novaya Opera in Carnegie Hall
Дисковод: _NEC DVD_RW ND-3500AG Adapter: 0 ID: 0
Режим чтения : Достоверность
Использование точного потока : Да
Отключение кэша аудио : Да
Использование указателей C2 : Нет
Коррекция смещения при чтении : 48
Способность читать области Lead-in и Lead-out : Нет
Заполнение пропущенных сэмплов тишиной : Да
Удаление блоков с тишиной в начале и конце : Нет
При вычислениях CRC использовались нулевые сэмплы : Нет
Интерфейс : Встроенный Win32-интерфейс для Win NT/2000
Выходной формат : Внутренние WAV-операции
Формат сэмплов : 44.100 Гц; 16 бит; стерео
TOC извлечённого CD
Трек | Старт | Длительность | Начальный сектор | Конечный сектор
---------------------------------------------------------------------
1 | 0:00.32 | 9:11.23 | 32 | 41379
2 | 9:11.55 | 8:54.67 | 41380 | 81496
3 | 18:06.47 | 3:55.05 | 81497 | 99126
4 | 22:01.52 | 7:06.03 | 99127 | 131079
5 | 29:07.55 | 6:50.40 | 131080 | 161869
6 | 35:58.20 | 2:49.70 | 161870 | 174614
7 | 38:48.15 | 4:11.10 | 174615 | 193449
8 | 42:59.25 | 9:23.72 | 193450 | 235746
9 | 52:23.22 | 4:08.70 | 235747 | 254416
10 | 56:32.17 | 8:12.08 | 254417 | 291324
Характеристики диапазона извлечения и сообщения об ошибках
Выбранный диапазон
Имя файла C:\Documents and Settings\ШАКЛЮПАМС\Мои документы\Various - Novaya Opera in Carnegie Hall.wav
Пиковый уровень 100.0 %
Качество диапазона 100.0 %
CRC копии 2F57DD49
Копирование... OK
Ошибок не произошло
Конец отчёта


Скачать торрент 268.75 МБ


Download
Для скачивания .torrent файлов необходима регистрация
Сайт не распространяет и не хранит электронные версии произведений, а лишь предоставляет доступ к создаваемому пользователями каталогу ссылок на торрент-файлы, которые содержат только списки хеш-сумм

Страница 1 из 1

Ответить на тему

   Похожие торренты   Торрент