Регистрация ·  Логин: Пароль: Запомнить   · Забыли пароль?




Ответить на тему
Статистика раздачи
Размер: 281.39 МБ | Зарегистрирован: 10 мар 2018, 13:20 | .torrent скачан: 0 раз(а)
Сидеров: [ 0  | 0 байт/сек ]   Личеров: [ 0  | 0 байт/сек ]   DHT: [ 0 / 0 ]
Автор Сообщение

Модератор
Аватара пользователя

Стаж: 6 лет
Сообщения: 7870
Молдова

Сообщение 10 мар 2018, 13:20 

[Цитировать]

Pavarotti - Essential Pavarotti II

Жанр: Classical / Vocal
Год выпуска диска: 1991
Производитель диска: Decca Germany
Аудио кодек: FLAC
Тип рипа: image+.cue
Битрейт аудио: lossless
Продолжительность: 59:54
Источник: собственный рип
Код:
[b]01.Questa O Quella  1:49[/b]
    Orchestra - London Symphony Orchestra*
[b]02.Recondita Armonia  3:01[/b]
    Conductor - Nicola Rescigno
[b]03.Brindisi: Libiamo, Ne'lieti Calici  2:50[/b]
    Chorus - London Opera Chorus
  Performer [Violetta] - Joan Sutherland
[b]04.Amor Ti Vieta  1:50[/b]
    Written-By - Giordano*
[b]05.Mi Batte Il Cor....O Paradiso  3:30[/b]
    Written-By - Meyerbeer*
[b]06.Se Quel Guerrier Io Fossi...Celeste Aida  4:06[/b]
    Conductor - Lorin Maazel
  Orchestra - Orchestra Del Teatro Alla Scala
[b]07.Ch'ella Mi Creda  2:05
08.Donna Non Vidi Mai  2:38
09.Pourquoi Me Réveiller  3:05[/b]
    Written-By - Massenet*
[b]10.O Soave Fanciulla  4:15[/b]
    Conductor - Herbert von Karajan
  Orchestra - Berlin Philharmonic Orchestra*
[b]11.Marechiare  3:52[/b]
    Arranged By - Chiaramello*
  Conductor - Gian Carlo Chiaramello*
  Music By - Tosti*
  Words By - Di Giacomo*
[b]12.Ave Maria  4:47[/b]
    Arranged By - Gamley*
  Music By - Schubert*
[b]13.La Serenata  2:12[/b]
    Arranged By - Gamley*
  Music By - Tosti*
  Orchestra - Orchestra del Teatro Comunale Di Bologna*
  Words By - Cesaro*
[b]14.Panis Angelicus  4:00[/b]
    Arranged By - Gamley*
  Chorus - Wandsworth Boys Choir
  Music By - Franck*
[b]15.In Un Palco Della Scala (With Apologies To Pink Panther)  3:14[/b]
    Conductor - Henry Mancini
  Music By - Mancini*
  Words By - Kramer* , Garinei* , Giovannini*
[b]16.Caro Mio Ben  3:03[/b]
    Conductor - Piero Gamba*
  Music By - Giordano*
  Orchestra - Philharmonia Orchestra
  Orchestrated By - Faris*
[b]17.Mamma  3:34[/b]
    Arranged By - Mancini*
  Conductor - Henry Mancini
  Music By - Cherubini*
  Words By - Bixio*
[b]18.Nessun Dorma - Live Version  3:10[/b]
    Orchestra - Royal Philharmonic Orchestra*
Conductor - Kurt Herbert Adler (tracks: 12, 14, 18) , Oliviero De Fabritiis (tracks: 04, 05, 07 to 09) ,
                    Richard Bonynge (tracks: 01, 03, 13)
Liner Notes - Nicky Campbell (2)
Orchestra - National Philharmonic Orchestra (tracks: 02 to 05, 07 to 09, 11, 12, 14)
Photography [Front Cover] - Vivianne Purdom
Written-By - Puccini* (tracks: 02, 07, 08, 10, 18) , Verdi* (tracks: 01, 03, 06)
Track 01 from Rigoletto, 02 from Tosca, 03 from La Traviata, 04 from Fedora, 05 from L'Africana,
06 from Aida, 07 from La Fanciulla del West, 08 from Manon Lescaut, 09 from Werther,
10 from La Bohème, 18 from Turandot.
Код:
Exact Audio Copy V0.99 prebeta 5 from 4. May 2009
Отчёт EAC об извлечении, выполненном 14. сентября 2010, 23:52
Pavarotti / Essential Pavarotti II
Дисковод: HL-DT-STDVDRAM GE20LU11   Adapter: 2  ID: 0
Режим чтения                 : Достоверность
Использование точного потока : Да
Отключение кэша аудио        : Да
Использование указателей C2  : Нет
Коррекция смещения при чтении                     : 667
Способность читать области Lead-in и Lead-out     : Нет
Заполнение пропущенных сэмплов тишиной            : Нет
Удаление блоков с тишиной в начале и конце        : Нет
При вычислениях CRC использовались нулевые сэмплы : Да
Интерфейс                                         : Встроенный Win32-интерфейс для Win NT/2000
Выходной формат          : Пользовательский кодировщик
Выбранный битрейт        : 896 kBit/s
Качество                 : Высокий
Добавление ID3-тэга      : Нет
Утилита сжатия           : C:\Program Files\Exact Audio Copy\FLAC\FLAC.EXE
Дополнительные параметры : -8 -V %s
TOC извлечённого CD
     Трек |   Старт  | Длительность | Начальный сектор | Конечный сектор
    ---------------------------------------------------------------------
       1  |  0:00.33 |    1:52.00   |          33      |       8432
       2  |  1:52.33 |    3:03.00   |        8433      |      22157
       3  |  4:55.33 |    2:55.00   |       22158      |      35282
       4  |  7:50.33 |    1:50.00   |       35283      |      43532
       5  |  9:40.33 |    3:33.00   |       43533      |      59507
       6  | 13:13.33 |    4:33.00   |       59508      |      79982
       7  | 17:46.33 |    2:09.00   |       79983      |      89657
       8  | 19:55.33 |    2:42.00   |       89658      |     101807
       9  | 22:37.33 |    3:09.00   |      101808      |     115982
      10  | 25:46.33 |    4:17.00   |      115983      |     135257
      11  | 30:03.33 |    3:58.00   |      135258      |     153107
      12  | 34:01.33 |    4:52.00   |      153108      |     175007
      13  | 38:53.33 |    3:22.00   |      175008      |     190157
      14  | 42:15.33 |    4:06.00   |      190158      |     208607
      15  | 46:21.33 |    3:21.00   |      208608      |     223682
      16  | 49:42.33 |    3:09.00   |      223683      |     237857
      17  | 52:51.33 |    3:38.00   |      237858      |     254207
      18  | 56:29.33 |    3:25.67   |      254208      |     269649
Характеристики диапазона извлечения и сообщения об ошибках
Выбранный диапазон
     Имя файла G:\EAC\Essential Pavarotti II - 2\Pavarotti - Essential Pavarotti II.wav
     Пиковый уровень 98.8 %
     Качество диапазона 99.9 %
     CRC копии 5EAE5A0A
     Копирование... OK
Ошибок не произошло
Конец отчёта
Код:
REM GENRE Vocal
REM DATE 1991
REM DISCID 0F0E0B12
REM COMMENT "ExactAudioCopy v0.99pb5"
PERFORMER "Pavarotti"
TITLE "Essential Pavarotti II"
FILE "Pavarotti - Essential Pavarotti II.flac" WAVE
  TRACK 01 AUDIO
    TITLE "Questa o quella"
    PERFORMER "Pavarotti"
    INDEX 00 00:00:00
    INDEX 01 00:00:33
  TRACK 02 AUDIO
    TITLE "Recondita armonia"
    PERFORMER "Pavarotti"
    INDEX 00 01:47:23
    INDEX 01 01:52:33
  TRACK 03 AUDIO
    TITLE "Brindisi Libiamo, ne' lieti calici"
    PERFORMER "Pavarotti"
    INDEX 00 04:50:73
    INDEX 01 04:55:33
  TRACK 04 AUDIO
    TITLE "Amor ti vieta"
    PERFORMER "Pavarotti"
    INDEX 00 07:45:58
    INDEX 01 07:50:33
  TRACK 05 AUDIO
    TITLE "Mi batte il cor... O paradisio"
    PERFORMER "Pavarotti"
    INDEX 00 09:36:10
    INDEX 01 09:40:33
  TRACK 06 AUDIO
    TITLE "Se quel guarrier io fossi... Celeste Aida"
    PERFORMER "Pavarotti"
    INDEX 00 13:09:18
    INDEX 01 13:13:33
  TRACK 07 AUDIO
    TITLE "Ch'ella mi creda"
    PERFORMER "Pavarotti"
    INDEX 00 17:41:70
    INDEX 01 17:46:33
  TRACK 08 AUDIO
    TITLE "Donna non vidi mai"
    PERFORMER "Pavarotti"
    INDEX 00 19:49:18
    INDEX 01 19:55:33
  TRACK 09 AUDIO
    TITLE "Pourquoi me reveiller"
    PERFORMER "Pavarotti"
    INDEX 00 22:32:50
    INDEX 01 22:37:33
  TRACK 10 AUDIO
    TITLE "O soave fanciulla"
    PERFORMER "Pavarotti"
    INDEX 00 25:42:05
    INDEX 01 25:46:33
  TRACK 11 AUDIO
    TITLE "Marechiare"
    PERFORMER "Pavarotti"
    INDEX 00 29:58:18
    INDEX 01 30:03:33
  TRACK 12 AUDIO
    TITLE "Ave Maria"
    PERFORMER "Pavarotti"
    INDEX 00 33:56:25
    INDEX 01 34:01:33
  TRACK 13 AUDIO
    TITLE "La Serenata"
    PERFORMER "Pavarotti"
    INDEX 00 38:49:15
    INDEX 01 38:53:33
  TRACK 14 AUDIO
    TITLE "Panis angelicus"
    PERFORMER "Pavarotti"
    INDEX 00 42:11:18
    INDEX 01 42:15:33
  TRACK 15 AUDIO
    TITLE "In un palco della Scala"
    PERFORMER "Pavarotti"
    INDEX 00 46:16:38
    INDEX 01 46:21:33
  TRACK 16 AUDIO
    TITLE "Caro mio ben"
    PERFORMER "Pavarotti"
    INDEX 00 49:38:03
    INDEX 01 49:42:33
  TRACK 17 AUDIO
    TITLE "Mamma"
    PERFORMER "Pavarotti"
    INDEX 00 52:46:68
    INDEX 01 52:51:33
  TRACK 18 AUDIO
    TITLE "Nessun dorma"
    PERFORMER "Pavarotti"
    INDEX 00 56:24:43
    INDEX 01 56:29:33
Буклет прилагается.


Скачать торрент 281.39 МБ


Download
Для скачивания .torrent файлов необходима регистрация
Сайт не распространяет и не хранит электронные версии произведений, а лишь предоставляет доступ к создаваемому пользователями каталогу ссылок на торрент-файлы, которые содержат только списки хеш-сумм

Страница 1 из 1

Ответить на тему

   Похожие торренты   Торрент