Регистрация ·  Логин: Пароль: Запомнить   · Забыли пароль?




Ответить на тему
Статистика раздачи
Размер: 303.09 МБ | Зарегистрирован: 10 мар 2018, 13:20 | .torrent скачан: 0 раз(а)
Сидеров: [ 0  | 0 байт/сек ]   Личеров: [ 0  | 0 байт/сек ]   DHT: [ 0 / 0 ]
Автор Сообщение

Модератор
Аватара пользователя

Стаж: 6 лет
Сообщения: 7870
Молдова

Сообщение 10 мар 2018, 13:20 

[Цитировать]

Claudio Monteverdi - Madrigals Book 5 - Delitiæ Musicæ, Marco Longhini

Жанр: Classical, madrigal
Год издания диска: 2006
Издатель (лейбл): Naxos
Номер по каталогу: 8.555311
Дата записи: 2003
Аудиокодек: FLAC
Тип рипа: image+.cue
Битрейт аудио: lossless
Продолжительность: 78:34
Источник: собственный рип
Наличие сканов в содержимом раздачи: да
Треклист:
Claudio Monteverdi (1567-1643)
Il Quinto Libro de’ Madrigali, 1605
[1] Cruda Amarilli
[2] O Mirtillo
[3] Era l'anima mia
[4] Ecco, Silvio, colei - Part I
[5] Ma, se con la pietà - Part II
[6] Dorinda, ah, dirò mia - Part III
[7] Ecco, piegando le genocchie - Part IV
[8] Ferir quel petto, Sillvio? - Part V
[9] Ch'io t'ami - Part I
[10] Deh, bella e cara - Part II
[11] Ma tu, più che mai dura - Part III
[12] Che dar più vi poss'io?
[13] M'è più dolce il penar
[14] Ah, come a un vago sol
[15] Troppo ben può
[16] Amor, se giusto sei
[17] T'amo, mia vita
[18] E così, a poco a poco
[19] Questi vaghi concenti
Исполнители:
Delitiæ Musicæ
Marco Longhini
Код:
Exact Audio Copy V1.0 beta 3 from 29. August 2011
EAC extraction logfile from 9. July 2012, 12:44
Delitiae Musicae, Marco Longhini / Monteverdi - Madrigals Book 5
Used drive  : Optiarc DVD+-RW AD-5170S   Adapter: 0  ID: 1
Read mode               : Secure
Utilize accurate stream : Yes
Defeat audio cache      : Yes
Make use of C2 pointers : No
Read offset correction                      : 48
Overread into Lead-In and Lead-Out          : No
Fill up missing offset samples with silence : Yes
Delete leading and trailing silent blocks   : No
Null samples used in CRC calculations       : Yes
Used interface                              : Native Win32 interface for Win NT & 2000
Used output format              : User Defined Encoder
Selected bitrate                : 896 kBit/s
Quality                         : High
Add ID3 tag                     : Yes
Command line compressor         : C:\Program Files\Exact Audio Copy\Flac\flac.exe
Additional command line options : -V -8 %source%
TOC of the extracted CD
     Track |   Start  |  Length  | Start sector | End sector
    ---------------------------------------------------------
        1  |  0:00.00 |  3:40.30 |         0    |    16529
        2  |  3:40.30 |  3:33.47 |     16530    |    32551
        3  |  7:14.02 |  4:23.61 |     32552    |    52337
        4  | 11:37.63 |  4:13.52 |     52338    |    71364
        5  | 15:51.40 |  3:34.68 |     71365    |    87482
        6  | 19:26.33 |  2:41.07 |     87483    |    99564
        7  | 22:07.40 |  3:18.31 |     99565    |   114445
        8  | 25:25.71 |  5:10.39 |    114446    |   137734
        9  | 30:36.35 |  2:19.36 |    137735    |   148195
       10  | 32:55.71 |  3:10.55 |    148196    |   162500
       11  | 36:06.51 |  4:28.15 |    162501    |   182615
       12  | 40:34.66 |  3:44.20 |    182616    |   199435
       13  | 44:19.11 |  4:09.56 |    199436    |   218166
       14  | 48:28.67 |  6:13.71 |    218167    |   246212
       15  | 54:42.63 |  3:27.17 |    246213    |   261754
       16  | 58:10.05 |  4:14.18 |    261755    |   280822
       17  | 62:24.23 |  3:30.05 |    280823    |   296577
       18  | 65:54.28 |  3:29.42 |    296578    |   312294
       19  | 69:23.70 |  9:08.05 |    312295    |   353399
Range status and errors
Selected range
     Filename D:\temp\pics\Monteverdi - Madrigals Book 5\Monteverdi - Madrigals Book 5.wav
     Peak level 63.7 %
     Extraction speed 5.7 X
     Range quality 100.0 %
     Test CRC 2C52264D
     Copy CRC 2C52264D
     Copy OK
No errors occurred
End of status report
==== Log checksum B21730AD3FC6425A8C789AC970F35EB3F011E3FCB2EECD6AC587FBA5E4316BA1 ====


Скачать торрент 303.09 МБ


Download
Для скачивания .torrent файлов необходима регистрация
Сайт не распространяет и не хранит электронные версии произведений, а лишь предоставляет доступ к создаваемому пользователями каталогу ссылок на торрент-файлы, которые содержат только списки хеш-сумм

Страница 1 из 1

Ответить на тему

   Похожие торренты   Торрент 




cron